Loading...
Error

Скачать Агенты Щ.И.Т. / Marvel's Agents of S.H.I.E.L.D. (сезон 02) [2014, фантастика, боевик, драма, WEB-DLRip] [MVO LostFilm]+[Eng] торрент без регистрации

 
Статистика раздачи
Размер:  8,84 GB   |    Скачан:  3794 раза
Сидов:  23  [  0 KB/s  ]   Личеров:  9  [  0 KB/s  ]  
 
Автор Сообщение

МихаНЕзатор

[] 

Агенты Щ.И.Т.а / Agents of S.H.I.E.L.D
.


Год выпуска: 2014
Выпущено: США / Marvel Television
Жанр: фантастика, боевик, драма
Продолжительность: ~00:44:00
Перевод: 1)Профессиональный (многоголосый закадровый) LostFilm
Субтитры: нет
Режиссёр: Дэвид Стрейтон / David Straiton, Джосс Уидон / Joss Whedon

В ролях: Кларк Грегг (Phil Coulson), Минг-На (Melinda May), Бретт Далтон (Grant Ward), Хлоя Беннет (Skye), Йен де Кестекер (Leo Fitz), Элизабет Хенстридж (Jemma Simmons), Рон Гласс (Dr. Streiten), Шеннон Лучио (Debbie), Дж. Аугуст Ричардс (Mike Peterson), Коби Смолдерс (Maria Hill), Даг Симпсон (FBI Agent)



Описание: Агент Фил Колсон (Кларк Грегг) и его коллеги из секретной организации Щ.И.Т. — бойцы невидимого фронта, которые стоят на защите мира и спокойствия жителей Земли. Многое изменилось после вторжения пришельцев в Нью-Йорк. Начали появляться новые супергерои, которые далеко не всегда выступают на стороне добра и справедливости. Кроме того, людям стали доступны новые технологии и даже артефакты внеземного происхождения, которые могут натворить немало бед, если попадут не в те руки. За всем этим следит таинственный Щ.И.Т. и если что-то выйдет из-под контроля, лучшие агенты организации найдут способ ликвидировать угрозу.




Рип чистый. Без посторонних надписей


Тип релиза: WEB-DLRip [Marvels.Agents.of.S.H.I.E.L.D.S02E01.1080p.WEB-DL.DD5.1.H.264-PublicHD]
Контейнер: AVI
Видео: 658x368 (1.76:1), 23.976 fps, XviD build 73 ~1051 kbps avg, 0.18 bit/pixel
Аудио #1: 48 kHz, MP3, 2/0 (L,R) ch, ~128.00 kbps avg (RUS) LostFilm
Аудио #2: 48 kHz,MP3, 2/0 (L,R) ch, ~128.00 kbps avg (ENG)


АНОНСЫ ПОПУЛЯРНЫХ РАЗДАЧ


Торрент обновлён, добавлена 22-я серия!

Код:


 MediaInfoLib - v0.7.62
 
 General
 Complete name                       : D:ЩИТ 021.avi
 Format                              : AVI
 Format/Info                         : Audio Video Interleave
 File size                           : 407 MiB
 Duration                            : 43mn 3s
 Overall bit rate                    : 1 321 Kbps
 Writing application                 : VirtualDubMod 1.5.10.3 | www.virtualdub-fr.org || (build 2550/release)
 Writing library                     : VirtualDubMod build 2550/release
 
 Video
 ID                                  : 0
 Format                              : MPEG-4 Visual
 Format profile                      : Advanced Simple@L5
 Format settings, BVOP               : 1
 Format settings, QPel               : No
 Format settings, GMC                : No warppoints
 Format settings, Matrix             : Custom
 Codec ID                            : DX50
 Codec ID/Hint                       : DivX 5
 Duration                            : 43mn 3s
 Bit rate                            : 1 051 Kbps
 Width                               : 656 pixels
 Height                              : 368 pixels
 Display aspect ratio                : 16:9
 Frame rate                          : 23.976 fps
 Color space                         : YUV
 Chroma subsampling                  : 4:2:0
 Bit depth                           : 8 bits
 Scan type                           : Progressive
 Compression mode                    : Lossy
 Bits/(Pixel*Frame)                  : 0.182
 Stream size                         : 324 MiB (80%)
 Writing library                     : XviD 73
 
 Audio #1
 ID                                  : 1
 Format                              : MPEG Audio
 Format version                      : Version 1
 Format profile                      : Layer 3
 Mode                                : Joint stereo
 Mode extension                      : MS Stereo
 Codec ID                            : 55
 Codec ID/Hint                       : MP3
 Duration                            : 43mn 2s
 Bit rate mode                       : Constant
 Bit rate                            : 128 Kbps
 Channel(s)                          : 2 channels
 Sampling rate                       : 48.0 KHz
 Compression mode                    : Lossy
 Stream size                         : 39.4 MiB (10%)
 Alignment                           : Aligned on interleaves
 Interleave, duration                : 42 ms (1.00 video frame)
 Interleave, preload duration        : 504 ms
 
 Audio #2
 ID                                  : 2
 Format                              : MPEG Audio
 Format version                      : Version 1
 Format profile                      : Layer 3
 Codec ID                            : 55
 Codec ID/Hint                       : MP3
 Duration                            : 43mn 3s
 Bit rate mode                       : Constant
 Bit rate                            : 128 Kbps
 Channel(s)                          : 2 channels
 Sampling rate                       : 48.0 KHz
 Compression mode                    : Lossy
 Stream size                         : 39.4 MiB (10%)
 Alignment                           : Aligned on interleaves
 Interleave, duration                : 42 ms (1.00 video frame)
 Interleave, preload duration        : 504 ms
 Writing library                     : LAME3.99r
 Encoding settings                   : -m s -V 4 -q 2 -lowpass 17 -b 128
 



Внимание! Раздача ведётся путём добавления новых серийВнимание! Раздача ведётся путём добавления новых серий; при каждом добавлении создаётся новый торрент. Чтобы начать докачку новой серии, пользователям необходимо сделать следующее:
(1) остановить скачивание,
(2) удалить старый торрент у себя из клиента (старые серии удалять не надо),
(3) скачать новый торрент и запустить его у себя в клиенте вместо старого, при этом указать клиенту путь в старую папку куда и должно происходить скачивание новых серий.Ваш клиент при этом должен произвести хеширование (проверку) старой папки (если не производит сам - помогите ему сделать это), и будет докачивать только те серии которых у вас ещё нет. Старые серии при этом не удаляются, а продолжают раздаваться!Eсли вы уже удалили старые серии, то предотвратить повторную закачку старых серий можно, отжав галочку в соответствующих местах при запуске нового торрента. По возможности, желательно не удалять старые серии как можно дольше чтобы релизёр не столько продолжал раздавать старые серии, а смог сконцентрироваться на новых.



Скачать Агенты.Щ.И.Т.Marvel's.Agents.of.S.H.I.E.L.D.(сезон.02).[2014.фантастика.боевик.драма.WEB-DLRip].[MVO.LostFilm]+[Eng].torrent без регистрации
Золото ЗОЛОТАЯ РАЗДАЧА! СКАЧАННОЕ НЕ ЗАСЧИТЫВАЕТСЯ! Золото
Дата: Зарегистрирован   [ Тип: внешний ] Как тут cкачать?
MAGNET ссылка
MAGNET ссылка


Скачать .torrent

179 KB

Статус: проверено DHT
Скачан: торрент - 3794 раз, раздача полностью - 198 раз
Размер: 8,84 GB
Оценка:  4,5 (Голосов: 2)
Поблагодарили: 9
Поделиться ссылкой на эту раздачу с друзьями:
В контактеFacebookОдноклассникиTwitterLivejournalМой МирLiveinternet
 

 

b71971

[] 

Когда новые серии будут? Уже 2 недели прошло, а воз и ныне там)))
 
Показать сообщения:    


Вы не можете начинать темы
Вы не можете отвечать на сообщения
Вы не можете редактировать свои сообщения
Вы не можете удалять свои сообщения
Вы не можете голосовать в опросах
Вы не можете прикреплять файлы к сообщениям
Вы можете скачивать файлы