Loading...
Error

Скачать Агенты Щ.И.Т. / Marvel's Agents of S.H.I.E.L.D. (сезон 02) (Дэвид Стрейтон, Джосс Уидон и др.) [2014, фантастика, боевик, драма, WEB-DL] [720p] [MVO DD5.1 (LostFilm)]+[Eng]+[Sub (Rus, Eng)] торрент без регистрации

 
Статистика раздачи
Размер:  31,45 GB   |    Скачан:  5264 раза

Полного источника не было: 19 минут

 
Автор Сообщение

МихаНЕзатор

[] 



Агенты Щ.И.Т. / Agents of S.H.I.E.L.D.


Год выпуска: 2014
Страна: США
Жанр: фантастика, боевик
Продолжительность: ~ 00:44:00
Перевод: Профессиональный (многоголосый закадровый) LostFilm
Режиссёр: Джесси Бокко, Милан Чейлов, Роксанн Доусон / Jesse Bochco, Milan Cheylov, Roxann Dawson
В ролях: Кларк Грегг, Минг-На, Бретт Далтон, Хлоя Беннет, Йен де Кестекер, Элизабет Хенстридж, Дж. Аугуст Ричардс, Шеннон Лусио, Рон Гласс, Роберт Дж. Стефенсон, Коби Смолдерс, Аарон Бер, Николь Дж. Батлер, Сара Дюмон, Леонор Варела, Иэн Харт, Дэвид Конрад и др.
Описание:
Действия сериала разворачиваются после событий фильма «Мстители». Агент Фил Колсон возвращается в правоохранительную организацию под названием Щ.И.Т., собрав небольшую команду профессионалов, он начинает работу над новыми делами, которые порой бывают очень странными.

Качество: WEB-DL 720p
Контейнер: MKV

Видео: AVC, 1280x720 (16:9), 23.976 fps, ~3919 kbps, 0.177 bit/pixel
Аудио rus: AC-3, 48,0 КГц, 6 канала, 384 Кбит/сек
Аудио eng: AC-3, 48,0 КГц, 6 канала, 384 Кбит/сек
Субтитры: softsub (SRT) русские(notabenoid), английские


АНОНСЫ ПОПУЛЯРНЫХ РАЗДАЧ


Торент обновлён, добавлена 22-я серия!

01. Shadows / Тени
02. Heavy Is the Head / Нет покоя голове в венце
03. Making Friends and Influencing People
04. Лицом к лицу с врагом / Face My Enemy
05. Курица в волчьей норе / A Hen in the Wolfhouse
06. Дом с трещиной / A Fractured House
07. Надписи на стене / The Writing on the Wall
08. То, что мы хороним /The Things We Bury
09. Всяк сюда входящий / Ye Who Enter Here
10. Чем они станут (What They Become)
11. Отголоски / Aftershocks
12. Кто ты на самом деле / Who You Really Are
13. Одна из нас / One of Us
14. Любовь во времена Гидры / Love in the Time of Hydra
15. Когда одна дверь закрывается /One Door Closes
16. Посмертие /Afterlife
17. Мелинда /Melinda
18. Заклятый друг моего врага /Frenemy of My Enemy
19. Грязные полдюжины /The Dirty Half Dozen
20. Шрамы /Scars
21. S.O.S. Часть 1 /S.O.S. Part 1
22. S.O.S. Часть 2 /S.O.S. Part 2
Общее
Уникальный идентификатор : 171547253950819382085304483955623532875 (0x810ECCA0A31C92C793551A4268B3194B)
Полное имя : G:FilmsMarvel's.Agents.of.S.H.I.E.L.D.S02Marvel's.Agents.of.S.H.I.E.L.D.S02E01.720p.WEB-DL.LostFilm.mkv
Формат : Matroska
Версия формата : Version 4 / Version 2
Размер файла : 1,44 Гбайт
Продолжительность : 43 м.
Общий поток : 4782 Кбит/сек
Дата кодирования : UTC 2014-09-27 07:38:27
Программа кодирования : mkvmerge v7.2.0 ('On Every Street') 64bit built on Sep 13 2014 15:52:10
Библиотека кодирования : libebml v1.3.0 + libmatroska v1.4.1
_STATISTICS_WRITING_APP : mkvmerge v7.2.0 ('On Every Street') 64bit built on Sep 13 2014 15:52:10
_STATISTICS_WRITING_DATE_UTC : 2014-09-27 07:38:27
_STATISTICS_TAGS : BPS DURATION NUMBER_OF_FRAMES NUMBER_OF_BYTES
DURATION : 00:42:21.670000000
NUMBER_OF_FRAMES : 849
NUMBER_OF_BYTES : 27589

Видео
Идентификатор : 1
Формат : AVC
Формат/Информация : Advanced Video Codec
Профиль формата : High@L3.1
Параметр CABAC формата : Нет
Параметр ReFrames формата : 2 кадра
Идентификатор кодека : V_MPEG4/ISO/AVC
Продолжительность : 43 м.
Битрейт : 3919 Кбит/сек
Ширина : 1280 пикселей
Высота : 720 пикселей
Соотношение сторон : 16:9
Режим частоты кадров : Постоянный
Частота кадров : 23,976 кадра/сек
Цветовое пространство : YUV
Субдискретизация насыщенности : 4:2:0
Битовая глубина : 8 бит
Тип развёртки : Прогрессивная
Бит/(Пиксели*Кадры) : 0.177
Размер потока : 1,18 Гбайт (82%)
Язык : English
Default : Да
Forced : Нет
Основные цвета : BT.709
Характеристики трансфера : BT.709
Коэффициенты матрицы : BT.709

Аудио #1
Идентификатор : 2
Формат : AC-3
Формат/Информация : Audio Coding 3
Расширение режима : CM (complete main)
Параметр Endianness формата : Big
Идентификатор кодека : A_AC3
Продолжительность : 43 м.
Вид битрейта : Постоянный
Битрейт : 384 Кбит/сек
Каналы : 2 канала
Расположение каналов : Front: L R
Частота : 48,0 КГц
Битовая глубина : 16 бит
Метод сжатия : С потерями
Размер потока : 118 Мбайт (8%)
Заголовок : LostFilm
Язык : Russian
Default : Да
Forced : Нет

Аудио #2
Идентификатор : 3
Формат : AC-3
Формат/Информация : Audio Coding 3
Расширение режима : CM (complete main)
Параметр Endianness формата : Big
Идентификатор кодека : A_AC3
Продолжительность : 43 м.
Вид битрейта : Постоянный
Битрейт : 384 Кбит/сек
Каналы : 6 каналов
Расположение каналов : Front: L C R, Side: L R, LFE
Частота : 48,0 КГц
Битовая глубина : 16 бит
Метод сжатия : С потерями
Размер потока : 118 Мбайт (8%)
Язык : English
Default : Нет
Forced : Нет

Текст #1
Идентификатор : 4
Формат : UTF-8
Идентификатор кодека : S_TEXT/UTF8
Идентификатор кодека/Информация : UTF-8 Plain Text
Язык : Russian
Default : Нет
Forced : Нет

Текст #2
Идентификатор : 5
Формат : UTF-8
Идентификатор кодека : S_TEXT/UTF8
Идентификатор кодека/Информация : UTF-8 Plain Text
Заголовок : CC
Язык : English
Default : Нет
Forced : Нет



Скачать Агенты.Щ.И.Т.Marvel's.Agents.of.S.H.I.E.L.D.(сезон.02).(Дэвид.Стрейтон.Джосс.Уидон.и.др.).[2014.фантастика.боевик.драма.WEB-DL].[720p].[MVO.DD5.1.(LostFilm)]+[Eng]+[Sub.(Rus.Eng)].torrent без регистрации
Золото ЗОЛОТАЯ РАЗДАЧА! СКАЧАННОЕ НЕ ЗАСЧИТЫВАЕТСЯ! Золото
Дата: Зарегистрирован   [ Тип: внутренний ] Как тут cкачать?
MAGNET ссылка
MAGNET ссылка


Скачать .torrent

81 KB

Статус: проверено DHT
Скачан: торрент - 5264 раз, раздача полностью - 23 раз
Размер: 31,45 GB
Оценка:  5 (Голосов: 2)
Поблагодарили: 3
Поделиться ссылкой на эту раздачу с друзьями:
В контактеFacebookОдноклассникиTwitterLivejournalМой МирLiveinternet
 

 
Показать сообщения:    


Вы не можете начинать темы
Вы не можете отвечать на сообщения
Вы не можете редактировать свои сообщения
Вы не можете удалять свои сообщения
Вы не можете голосовать в опросах
Вы не можете прикреплять файлы к сообщениям
Вы можете скачивать файлы