Loading...
Error

Скачать Тайны исповеди / True Confessions (Улу Гросбард) [1981, драма, криминал, BDRip] [DVO] торрент без регистрации

 
Статистика раздачи
Размер:  1,47 GB   |    Скачан:  96 раз
Сидов:  1  [  0 KB/s  ]  
 
Автор Сообщение

Marsianka

[] 

Информация о фильме
Год выпуска: 1988
Жанр: драма, криминал
Режиссер: Улу Гросбард
В ролях: Роберт Де Ниро, Роберт Дювалл, Чарльз Дёрнинг, Эд Флэндерс, Бёрджесс Мередит, Роуз Грегорио, Сирил Кьюсак, Кеннет МакМиллан, Жанетт Нолан, Пэт Корли, Дэн Хедайя, Джордж Сервера мл.

Описание:
Два великих актера — Роберт Де Ниро и Роберт Дюваль играют роли двух братьев, ищущих таинственного убийцу, чья жестокость не укладывается в рамки обычного понимания — тело жертвы разрезано пополам. Расследуя это зверское убийство юной проститутки, офицер полиции Том приезжает в город, где живет его брат — священник монсеньер Десмонд Спелласи. В деле оказываются замешанными самые уважаемые люди города, жертвующие огромные деньги на благотворительность и церковь. Так или иначе, но и священник, и полицейский тоже втягиваются в эту грязную игру, где запах денег отравляет души всех смертных.



Выпущено: США
Перевод: профессиональный [двухголосый, НТВ+]
Субтитры: Нет
Продолжительность: 01:48:05

Файл
Качество: BDRip
Контейнер: AVI
Видео: 720x384, XviD 64, 23.976 fps, 1740 kbps
Аудио: 48 kHz, АС3, 2 ch, 192 kbps
General
Complete name : E:Tajny.Ispovedi.(1981).BDRip[-=DoMiNo=-].avi
Format : AVI
Format/Info : Audio Video Interleave
File size : 1.47 GiB
Duration : 1h 48mn
Overall bit rate : 1 941 Kbps
Writing library : VirtualDub build 35491/release

Video
ID : 0
Format : MPEG-4 Visual
Format profile : Advanced Simple@L5
Format settings, BVOP : 2
Format settings, QPel : No
Format settings, GMC : No warppoints
Format settings, Matrix : Default (H.263)
Muxing mode : Packed bitstream
Codec ID : XVID
Codec ID/Hint : XviD
Duration : 1h 48mn
Bit rate : 1 740 Kbps
Width : 720 pixels
Height : 384 pixels
Display aspect ratio : 1.85:1
Frame rate : 23.976 fps
Color space : YUV
Chroma subsampling : 4:2:0
Bit depth : 8 bits
Scan type : Interlaced
Scan order : Bottom Field First
Compression mode : Lossy
Bits/(Pixel*Frame) : 0.262
Stream size : 1.31 GiB (90%)
Writing library : XviD 64

Audio
ID : 1
Format : AC-3
Format/Info : Audio Coding 3
Mode extension : CM (complete main)
Format settings, Endianness : Big
Codec ID : 2000
Duration : 1h 48mn
Bit rate mode : Constant
Bit rate : 192 Kbps
Channel(s) : 2 channels
Channel positions : Front: L R
Sampling rate : 48.0 KHz
Bit depth : 16 bits
Compression mode : Lossy
Stream size : 148 MiB (10%)
Alignment : Aligned on interleaves
Interleave, duration : 42 ms (1.00 video frame)
Interleave, preload duration : 512 ms







Скачать Тайны.исповеди.True.Confessions.(Улу.Гросбард).[1981.драма.криминал.BDRip].[DVO].torrent без регистрации
Золото ЗОЛОТАЯ РАЗДАЧА! СКАЧАННОЕ НЕ ЗАСЧИТЫВАЕТСЯ! Золото
Дата: Зарегистрирован   [ Тип: внутренний ] Как тут cкачать?
MAGNET ссылка
MAGNET ссылка


Скачать .torrent

15 KB

Статус: проверено DHT
Скачан: торрент - 96 раз, раздача полностью - 5 раз
Размер: 1,47 GB
Оценка:  - (Голосов: 0)
Поблагодарили: 1
Поделиться ссылкой на эту раздачу с друзьями:
В контактеFacebookОдноклассникиTwitterLivejournalМой МирLiveinternet
 

 
Показать сообщения:    


Вы не можете начинать темы
Вы не можете отвечать на сообщения
Вы не можете редактировать свои сообщения
Вы не можете удалять свои сообщения
Вы не можете голосовать в опросах
Вы не можете прикреплять файлы к сообщениям
Вы можете скачивать файлы