Loading...
Error

Скачать Приют / El Orfanato / The Orphanage (Хуан Антонио Байона) [2007, мистика, триллер, драма, детектив, BDRip-AVC] [Dub]+[AVO]+[Sub]x2 торрент без регистрации

 
Статистика раздачи
Размер:  2,54 GB   |    Скачан:  144 раза
Сидов:  1  [  0 KB/s  ]  
 
Автор Сообщение

Marsianka

[] 

Информация о фильме
Название: Приют
Оригинальное название: El Orfanato / The Orphanage
Год выхода: 2007
Жанр: мистика, триллер, драма, детектив
Режиссер: [b]Хуан Антонио Байона
[b]В ролях:
Белен Руэда, Фернандо Кайо, Роже Принсеп, Мэйбл Ривера, Монтсеррат Карулла, Андрес Гертрудикс, Эдгар Вивар, Оскар Касас, Мирейа Рено, Джорджина Авелланеда Рита, Джеральдин Чаплин

О фильме: Самые счастливые годы Лаура провела в сиротском приюте на побережье. Любимые воспитатели заменили ей родителей, а друзья - братьев и сестер. Через тридцать лет Лаура возвращается в дом своего детства с мужем и семилетним сыном. Она мечтает восстановить его и открыть для новых маленьких посетителей. Однако героиню поразили перемены, произошедшие с ее собственным сыном. Из милого мальчика он превратился в маленького монстра с жестокими фантазиями и опасными играми. Она уверена, что во всем виноват старый дом, таящий скрытую угрозу. Постепенно картины прошлого всплывают в памяти Лауры и открывают ей страшную истину…



Страна: Испания
Студия: Esta Vivo! Laboratorio de Nuevos Talentos, Grupo Rodar, Rodar y Rodar Cine y Televisión S.L., Telecinco, Telecinco Cinema, Televisió de Catalunya (TV3), Warner Bros. Pictures de España, Wild Bunch
Продолжительность: 01:45:49
Перевод: Дублированный, авторский одноголосый (Немахов)

Файл
Кодек: MPEG-4 AVC
Качество: BDRip-AVC
Видео: 2100 Кбит/с, 1024x436, 23.976 кадр/с
Аудио #1: Русский (AC3, 6 ch, 448 Кбит/с) / Дублированный
Аудио #2: Русский (AC3, 6 ch, 448 Кбит/с) / Авторский одноголосый (Немахов)
Аудио #3: Испанский (AC3, 6 ch, 448 Кбит/с)
Субтитры: Русские, английские
Семпл
Общее
Уникальный идентификатор : 231660786949601055258016221345697764918 (0xAE483EA18E6F70BEB22E49E364401636)
Полное имя : D:Мои РипыPriyut.2007.x264.BDRip.AVC.MediaClub.mkv
Формат : Matroska
Версия формата : Version 4 / Version 2
Размер файла : 2,54 Гбайт
Продолжительность : 1 ч. 45 м.
Общий поток : 3443 Кбит/сек
Название фильма : = MediaClub = rip by krakatuq
Дата кодирования : UTC 2014-10-01 13:48:01
Программа кодирования : mkvmerge v6.6.0 ('The Edge Of The In Between') built on Dec 1 2013 17:55:00
Библиотека кодирования : libebml v1.3.0 + libmatroska v1.4.1

Видео
Идентификатор : 1
Формат : AVC
Формат/Информация : Advanced Video Codec
Профиль формата : High@L4.1
Параметр CABAC формата : Да
Параметр ReFrames формата : 9 кадров
Идентификатор кодека : V_MPEG4/ISO/AVC
Продолжительность : 1 ч. 45 м.
Битрейт : 2100 Кбит/сек
Ширина : 1024 пикселя
Высота : 436 пикселей
Соотношение сторон : 2,35:1
Режим частоты кадров : Постоянный
Частота кадров : 23,976 кадра/сек
Цветовое пространство : YUV
Субдискретизация насыщенности : 4:2:0
Битовая глубина : 8 бит
Тип развёртки : Прогрессивная
Бит/(Пиксели*Кадры) : 0.196
Размер потока : 1,50 Гбайт (59%)
Заголовок : Priyut.2007.x264.BDRip.AVC.MediaClub
Библиотека кодирования : x264 core 142 r2409+42 04be48a tMod [8-bit@4:2:0 X86]
Настройки программы : cabac=1 / ref=9 / deblock=1:-2:-2 / analyse=0x3:0x133 / me=umh / subme=11 / psy=1 / fade_compensate=0.00 / psy_rd=1.00:0.15 / mixed_ref=1 / me_range=32 / chroma_me=1 / trellis=2 / 8x8dct=1 / cqm=0 / deadzone=21,11 / fast_pskip=0 / chroma_qp_offset=-3 / threads=3 / lookahead_threads=1 / sliced_threads=0 / nr=0 / decimate=0 / interlaced=0 / bluray_compat=0 / constrained_intra=0 / fgo=0 / bframes=8 / b_pyramid=2 / b_adapt=2 / b_bias=0 / direct=3 / weightb=1 / open_gop=0 / weightp=2 / keyint=240 / keyint_min=23 / scenecut=40 / intra_refresh=0 / rc=2pass / mbtree=0 / bitrate=2100 / ratetol=1.0 / qcomp=0.60 / qpmin=0:0:0 / qpmax=69:69:69 / qpstep=4 / cplxblur=20.0 / qblur=0.5 / ip_ratio=1.40 / pb_ratio=1.30 / aq=1:1.00 / aq-sensitivity=10.00 / aq-factor=1.00:1.00:1.00 / aq2=0 / aq3=0
Язык : Spanish
Default : Да
Forced : Нет

Аудио #1
Идентификатор : 2
Формат : AC-3
Формат/Информация : Audio Coding 3
Расширение режима : CM (complete main)
Параметр Endianness формата : Big
Идентификатор кодека : A_AC3
Продолжительность : 1 ч. 45 м.
Вид битрейта : Постоянный
Битрейт : 448 Кбит/сек
Каналы : 6 каналов
Расположение каналов : Front: L C R, Side: L R, LFE
Частота : 48,0 КГц
Битовая глубина : 16 бит
Метод сжатия : С потерями
Размер потока : 339 Мбайт (13%)
Заголовок : TRACK_01_DUB_RUS
Язык : Russian
Default : Да
Forced : Да

Аудио #2
Идентификатор : 3
Формат : AC-3
Формат/Информация : Audio Coding 3
Расширение режима : CM (complete main)
Параметр Endianness формата : Big
Идентификатор кодека : A_AC3
Продолжительность : 1 ч. 45 м.
Вид битрейта : Постоянный
Битрейт : 448 Кбит/сек
Каналы : 6 каналов
Расположение каналов : Front: L C R, Side: L R, LFE
Частота : 48,0 КГц
Битовая глубина : 16 бит
Метод сжатия : С потерями
Размер потока : 339 Мбайт (13%)
Заголовок : TRACK_02_AVO_RUS_NEMAHOV
Язык : Russian
Default : Нет
Forced : Нет

Аудио #3
Идентификатор : 4
Формат : AC-3
Формат/Информация : Audio Coding 3
Расширение режима : CM (complete main)
Параметр Endianness формата : Big
Идентификатор кодека : A_AC3
Продолжительность : 1 ч. 45 м.
Вид битрейта : Постоянный
Битрейт : 448 Кбит/сек
Каналы : 6 каналов
Расположение каналов : Front: L C R, Side: L R, LFE
Частота : 48,0 КГц
Битовая глубина : 16 бит
Метод сжатия : С потерями
Размер потока : 339 Мбайт (13%)
Заголовок : TRACK_03_ORIGINAL_SPA
Язык : Spanish
Default : Нет
Forced : Нет

Текст #1
Идентификатор : 5
Формат : UTF-8
Идентификатор кодека : S_TEXT/UTF8
Идентификатор кодека/Информация : UTF-8 Plain Text
Заголовок : TEXT_01_SUB_RUS
Язык : Russian
Default : Нет
Forced : Нет

Текст #2
Идентификатор : 6
Формат : UTF-8
Идентификатор кодека : S_TEXT/UTF8
Идентификатор кодека/Информация : UTF-8 Plain Text
Заголовок : TEXT_02_SUB_ENG
Язык : English
Default : Нет
Forced : Нет

Меню
00:00:00.000 : en:00:00:00.000
00:09:06.254 : en:00:09:06.254
00:16:33.241 : en:00:16:33.241
00:22:11.203 : en:00:22:11.203
00:34:20.016 : en:00:34:20.016
00:43:20.097 : en:00:43:20.097
00:51:56.362 : en:00:51:56.362
01:02:21.278 : en:01:02:21.278
01:12:01.692 : en:01:12:01.692
01:17:59.382 : en:01:17:59.382
01:26:06.327 : en:01:26:06.327
01:35:56.583 : en:01:35:56.583

x264 log
x264 [info]: frame I:1235 Avg QP:15.09 size: 69283
x264 [info]: frame P:33269 Avg QP:18.41 size: 22277
x264 [info]: frame B:117704 Avg QP:19.94 size: 7110
Релиз от:

Автор рипа:



Скачать Приют.El.Orfanato.The.Orphanage.(Хуан.Антонио.Байона).[2007.мистика.триллер.драма.детектив.BDRip-AVC].[Dub]+[AVO]+[Sub]x2.torrent без регистрации
Золото ЗОЛОТАЯ РАЗДАЧА! СКАЧАННОЕ НЕ ЗАСЧИТЫВАЕТСЯ! Золото
Дата: Зарегистрирован   [ Тип: внутренний ] Как тут cкачать?
MAGNET ссылка
MAGNET ссылка


Скачать .torrent

13 KB

Статус: проверено DHT
Скачан: торрент - 144 раз, раздача полностью - 95 раз
Размер: 2,54 GB
Оценка:  - (Голосов: 0)
Поблагодарили: 2
Поделиться ссылкой на эту раздачу с друзьями:
В контактеFacebookОдноклассникиTwitterLivejournalМой МирLiveinternet
 

 
Показать сообщения:    


Вы не можете начинать темы
Вы не можете отвечать на сообщения
Вы не можете редактировать свои сообщения
Вы не можете удалять свои сообщения
Вы не можете голосовать в опросах
Вы не можете прикреплять файлы к сообщениям
Вы можете скачивать файлы