Loading...
Error

Скачать Разборки в маленьком Токио / Showdown in Little Tokyo (Марк Л. Лестер) [1991, боевик, драма, комедия, криминал, HDTVRip] [MVO]+[VO] торрент без регистрации

 
Статистика раздачи
Размер:  1,46 GB   |    Скачан:  114 раз
Сидов:  1  [  0 KB/s  ]  
 
Автор Сообщение

Marsianka

[] 

Название: Разборки в маленьком Токио
Оригинальное название: Showdown in Little Tokyo
Год выпуска: 1991
Жанр: боевик, драма, комедия, криминал
Выпущено: США, Little Tokyo Productions, Original Pictures, Warner Bros. Pictures Co.
Режиссер: Марк Л. Лестер
В ролях: Дольф Лундгрен, Брэндон Ли, Кэри-Хироюки Тагава, Тиа Каррере, Тоширо Обата, Филип Тан, Родни Кагеяма, Эрни Лайвли, Рени Гриффин, Рейд Асато

О фильме: Они — лос-анджелесские полицейские, которые перемежают удары с попаданием в газетные заголовки, во время Разборки в маленьком Токио. Герой Дольфа Лундгрена — мускулистый американский самурай, сведущий в восточных традициях. Герой Брэндона Ли — «деревенский увалень», которому предстоит немало драк. Им двоим придется круто на войне против японской наркомафии Лос-Анджелеса.



Качество: HDTVRip исходник (HDTV 1080i)
Видео: XviD, 2001 Кбит/с, 720x400

Продолжительность: 01:15:05
Перевод: Профессиональный (многоголосый), любительский (одноголосый)
Аудио #1: Русский, AC3, 2 ch, 192 Кбит/с | Профессиональный (многоголосый) ВГТРК-1
Аудио #2: Русский, AC3, 2 ch, 192 Кбит/с | Любительский (одноголосый) Чадов
Аудио #3: Английский, AC3, 6 ch, 384 Кбит/с

General
Complete name : G:Showdown in Little Tokyo 1991 HDTVRip 1.46-2.avi
Format : AVI
Format/Info : Audio Video Interleave
File size : 1.46 GiB
Duration : 1h 15mn
Overall bit rate : 2 791 Kbps
Writing application : VirtualDubModRus 1.5.10.2 (build 2542/release)
Writing library : VirtualDubMod build 2542/release

Video
ID : 0
Format : MPEG-4 Visual
Format profile : Advanced Simple@L5
Format settings, BVOP : 1
Format settings, QPel : No
Format settings, GMC : No warppoints
Format settings, Matrix : Default (MPEG)
Codec ID : XVID
Codec ID/Hint : XviD
Duration : 1h 15mn
Bit rate : 2 004 Kbps
Width : 720 pixels
Height : 400 pixels
Display aspect ratio : 16:9
Frame rate : 25.000 fps
Color space : YUV
Chroma subsampling : 4:2:0
Bit depth : 8 bits
Scan type : Progressive
Compression mode : Lossy
Bits/(Pixel*Frame) : 0.278
Stream size : 1.05 GiB (72%)
Writing library : XviD 57

Audio #1
ID : 1
Format : AC-3
Format/Info : Audio Coding 3
Mode extension : CM (complete main)
Format settings, Endianness : Big
Codec ID : 2000
Duration : 1h 15mn
Bit rate mode : Constant
Bit rate : 192 Kbps
Channel(s) : 2 channels
Channel positions : Front: L R
Sampling rate : 48.0 KHz
Bit depth : 16 bits
Compression mode : Lossy
Stream size : 103 MiB (7%)
Alignment : Split accross interleaves
Interleave, duration : 40 ms (1.00 video frame)
Interleave, preload duration : 500 ms

Audio #2
ID : 2
Format : AC-3
Format/Info : Audio Coding 3
Mode extension : CM (complete main)
Format settings, Endianness : Big
Codec ID : 2000
Duration : 1h 15mn
Bit rate mode : Constant
Bit rate : 192 Kbps
Channel(s) : 2 channels
Channel positions : Front: L R
Sampling rate : 48.0 KHz
Bit depth : 16 bits
Compression mode : Lossy
Stream size : 103 MiB (7%)
Alignment : Split accross interleaves
Interleave, duration : 40 ms (1.00 video frame)
Interleave, preload duration : 500 ms

Audio #3
ID : 3
Format : AC-3
Format/Info : Audio Coding 3
Mode extension : CM (complete main)
Format settings, Endianness : Big
Codec ID : 2000
Duration : 1h 15mn
Bit rate mode : Constant
Bit rate : 384 Kbps
Channel(s) : 6 channels
Channel positions : Front: L C R, Side: L R, LFE
Sampling rate : 48.0 KHz
Bit depth : 16 bits
Compression mode : Lossy
Stream size : 206 MiB (14%)
Alignment : Split accross interleaves
Interleave, duration : 40 ms (1.00 video frame)
Interleave, preload duration : 500 ms
Релиз от:



Скачать Разборки.в.маленьком.Токио.Showdown.in.Little.Tokyo.(Марк.Л.Лестер).[1991.боевик.драма.комедия.криминал.HDTVRip].[MVO]+[VO].torrent без регистрации
Золото ЗОЛОТАЯ РАЗДАЧА! СКАЧАННОЕ НЕ ЗАСЧИТЫВАЕТСЯ! Золото
Дата: Зарегистрирован   [ Тип: внутренний ] Как тут cкачать?
MAGNET ссылка
MAGNET ссылка


Скачать .torrent

15 KB

Статус: проверено DHT
Скачан: торрент - 114 раз, раздача полностью - 16 раз
Размер: 1,46 GB
Оценка:  - (Голосов: 0)
Поблагодарили: 1
Поделиться ссылкой на эту раздачу с друзьями:
В контактеFacebookОдноклассникиTwitterLivejournalМой МирLiveinternet
 

 
Показать сообщения:    


Вы не можете начинать темы
Вы не можете отвечать на сообщения
Вы не можете редактировать свои сообщения
Вы не можете удалять свои сообщения
Вы не можете голосовать в опросах
Вы не можете прикреплять файлы к сообщениям
Вы можете скачивать файлы