Loading...
Error

Скачать Подпольная Империя / Преступная империя / Boardwalk Empire (05x01-03 из 08) (Тимоти Ван Паттен, Аллен Култер) [2014, драма, криминал, HDTVRip] [ (Amedia)]+[Eng]+[Sub (Rus, Eng)] торрент без регистрации

 
Статистика раздачи
Размер:  3,45 GB   |    Скачан:  238 раз
Сидов:  1  [  0 KB/s  ]  
 
Автор Сообщение

МихаНЕзатор

[] 

Информация о фильме
Название: Подпольная Империя / Преступная империя
Оригинальное название: Boardwalk Empire
Год выхода: 2014
Жанр: Драма, криминал
Режиссер: Тимоти Ван Паттен, Аллен Коултер


В ролях: Стив Бушеми, Майкл Питт, Келли Макдоналд, Майкл Шеннон, Ши Уигхэм, Алекса Палладино, Майкл Стулбарг, Стивен Грэм, Винсент Пьяцца, Джек Хьюстон, Майкл К. Уильямс, Энтони Лакиура, Пол Спаркс, Гретхен Мол, Люси Галина, Джози Галина, Деклан Мактик, Рори Мактик, Брэйди Нун, Коннор Нун, Пас де ла Уэрта, Дэбни Коулмэн, Чарли Кокс, Анатол Юсеф, Виктор Верхак, Роберт Клохесси, Кевин О’Рурк, Хезер Линд, Уильям Хилл, Адам Муччи, Эдвард МакГинти, Бобби Каннавейл, Грег Антоначчи, Жаклин Пеннвилль, Пол Джуд Летерски



О фильме: Последний сезон эпической гангстерской саги об Америке времен сухого закона. Прошло 7 лет с тех пор, как мы в последний раз видели Наки Томпсона. Великая Депрессия окончена. Наступили новые времена, и в них уже нет места непотопляемому королю Атлантик-Сити и его подпольной империи. Ему предстоит принять свой последний бой.


Релиз от:


Страна: США
Продолжительность: ~ 00:57:00
Перевод: Профессиональный многоголосый, АРК-ТВ по заказу Amedia



Файл
Кодек: XviD
Качество: HDTVRip
Видео: ~ 2000 Кбит/с, 720x400, 23.976 кадр/с
Звук:
Аудио#1: Russian: 48 kHz, AC3, 3/2 (L,C,R,l,r) + LFE ch, ~384.00 kbps avg |Многоголосый закадровый, АРК-ТВ по заказу Amedia|
Аудио#2: English: 48 kHz, AC3, 3/2 (L,C,R,l,r) + LFE ch, ~384.00 kbps avg
Субтитры: Russian (Notabenoid), English 1-2 серии

Общее
Полное имя : Boardwalk Empire Season 5 CasStudio.TVBoardwalk.Empire.s05e01.rus.eng.CasStudio.TV.avi
Формат : AVI
Формат/Информация : Audio Video Interleave
Размер файла : 1,16 Гбайт
Продолжительность : 59 м.
Общий поток : 2782 Кбит/сек
Программа кодирования : VirtualDubMod 1.5.10.2 (build 2540/release)
Библиотека кодирования : VirtualDubMod build 2540/release

Видео
Идентификатор : 0
Формат : MPEG-4 Visual
Профиль формата : Advanced Simple@L5
Параметр BVOP формата : 1
Параметр QPel формата : Нет
Параметр GMC формата : Без точки перехода
Параметр матрицы формата : Default (MPEG)
Идентификатор кодека : XVID
Идентификатор кодека/Подсказка : XviD
Продолжительность : 59 м.
Битрейт : 1893 Кбит/сек
Ширина : 720 пикселей
Высота : 400 пикселей
Соотношение сторон : 16:9
Частота кадров : 23,976 кадра/сек
Цветовое пространство : YUV
Субдискретизация насыщенности : 4:2:0
Битовая глубина : 8 бит
Тип развёртки : Прогрессивная
Метод сжатия : С потерями
Бит/(Пиксели*Кадры) : 0.274
Размер потока : 811 Мбайт (68%)
Библиотека кодирования : XviD 65

Аудио #1
Идентификатор : 1
Формат : AC-3
Формат/Информация : Audio Coding 3
Расширение режима : CM (complete main)
Параметр Endianness формата : Big
Идентификатор кодека : 2000
Продолжительность : 59 м.
Вид битрейта : Постоянный
Битрейт : 384 Кбит/сек
Каналы : 6 каналов
Расположение каналов : Front: L C R, Side: L R, LFE
Частота : 48,0 КГц
Битовая глубина : 16 бит
Метод сжатия : С потерями
Размер потока : 164 Мбайт (14%)
Выравнивание : Разделение по промежуткам

Аудио #2
Идентификатор : 2
Формат : AC-3
Формат/Информация : Audio Coding 3
Расширение режима : CM (complete main)
Параметр Endianness формата : Big
Идентификатор кодека : 2000
Продолжительность : 59 м.
Вид битрейта : Постоянный
Битрейт : 384 Кбит/сек
Каналы : 6 канала
Расположение каналов : Front: L R
Частота : 48,0 КГц
Битовая глубина : 16 бит
Метод сжатия : С потерями
Размер потока : 164 Мбайт (14%)
Выравнивание : Разделение по промежуткам



Скачать Подпольная.Империя.Преступная.империя.Boardwalk.Empire.(05x01-03.из.08).(Тимоти.Ван.Паттен.Аллен.Култер).[2014.драма.криминал.HDTVRip].[.(Amedia)]+[Eng]+[Sub.(Rus.Eng)].torrent без регистрации
Золото ЗОЛОТАЯ РАЗДАЧА! СКАЧАННОЕ НЕ ЗАСЧИТЫВАЕТСЯ! Золото
Дата: Зарегистрирован   [ Тип: внутренний ] Как тут cкачать?
MAGNET ссылка
MAGNET ссылка


Скачать .torrent

19 KB

Статус: проверено DHT
Скачан: торрент - 238 раз, раздача полностью - 0 раз
Размер: 3,45 GB
Оценка:  - (Голосов: 0)
Поблагодарили: 0
Поделиться ссылкой на эту раздачу с друзьями:
В контактеFacebookОдноклассникиTwitterLivejournalМой МирLiveinternet
 

 
Показать сообщения:    


Вы не можете начинать темы
Вы не можете отвечать на сообщения
Вы не можете редактировать свои сообщения
Вы не можете удалять свои сообщения
Вы не можете голосовать в опросах
Вы не можете прикреплять файлы к сообщениям
Вы можете скачивать файлы