Loading...
Error

Скачать Пашендаль: Последний бой / Passchendaele (Пол Гросс) [2008, драма, мелодрама, военный, история, BDRip-AVC] [MVO]+[Sub]x3 торрент без регистрации

 
Статистика раздачи
Размер:  2,79 GB   |    Скачан:  146 раз
Сидов:  1  [  0 KB/s  ]  
 
Автор Сообщение

Marsianka

[] 

Информация о фильме
Название: Пашендаль: Последний бой
Оригинальное название: Passchendaele
Год выхода: 2008
Жанр: драма, мелодрама, военный, история
Режиссер: Пол Гросс
В ролях: Пол Гросс, Кэролайн Давернас, Джо Диникол, Мередит Бэйли, Джим Мезон, Майкл Грейес, Адам Харингтон, Джил Беллоуз, Джеймс Кот, Джесси Фречетт, Райнер Каль, Лэндон Либуарон, Патриция Бенедикт, Хью Пробин, Брайан Дули, Фрэнсис Дэмбергер, Дэвид Лей, Джудит Бачан, Дэвид Браун, Чад Ноберт, Луис Холли, Стэффорд Лоуренс, Марти Антонини, Джеймс Дефеличе, Шон Энтони Олсен, Райан Кови, Алекс Арсено, Джастин Майкл Каррьере, Том Кэри, Крис Ипполито

О фильме: Третья битва при Ипре, известная как битва за Пашендаль, оказалась одной из самых жестоких битв Первой Мировой войны, унесшей жизни сотен тысяч солдат. Из-за дождя, продолжавшегося несколько месяцев, место боев превратилось в мешанину из воды и грязи, и множество солдат просто утонуло в грязи прежде, чем было убито врагом…



Страна: Канада
Студия: Damberger Film & Cattle Co., Rhombus Media, Whizbang Films Inc.
Продолжительность: 01:54:17
Перевод: Профессиональный многоголосый

Файл
Кодек: MPEG-4 AVC
Качество: BDRip-AVC
Видео: 2600 Кбит/с, 1024х436, 23.976 кадр/с
Аудио #1: Русский (AC3, 6 ch, 448 Кбит/с) / Профессиональный многоголосый (CPdigital)
Аудио #2: Английский (AC3, 6 ch, 448 Кбит/с)
Субтитры: Русские (2 вида), английские
Семпл
Общее
Уникальный идентификатор : 181323415080448720038125828361475208381 (0x88699E95BAE477D68B5C98F55F3E34BD)
Полное имя : D:2Films DРелизыPashendal.2007.x264.BDRip.AVC.MediaClub.mkv
Формат : Matroska
Версия формата : Version 4 / Version 2
Размер файла : 2,79 Гбайт
Продолжительность : 1 ч. 54 м.
Общий поток : 3491 Кбит/сек
Название фильма : -= MediaClub =- rip by Lefevr
Дата кодирования : UTC 2014-09-18 13:34:18
Программа кодирования : mkvmerge v6.6.0 ('The Edge Of The In Between') built on Dec 1 2013 17:55:00
Библиотека кодирования : libebml v1.3.0 + libmatroska v1.4.1

Видео
Идентификатор : 1
Формат : AVC
Формат/Информация : Advanced Video Codec
Профиль формата : High@L4.1
Параметр CABAC формата : Да
Параметр ReFrames формата : 9 кадров
Идентификатор кодека : V_MPEG4/ISO/AVC
Продолжительность : 1 ч. 54 м.
Битрейт : 2600 Кбит/сек
Ширина : 1024 пикселя
Высота : 436 пикселей
Соотношение сторон : 2,35:1
Режим частоты кадров : Постоянный
Частота кадров : 23,976 кадра/сек
Цветовое пространство : YUV
Субдискретизация насыщенности : 4:2:0
Битовая глубина : 8 бит
Тип развёртки : Прогрессивная
Бит/(Пиксели*Кадры) : 0.243
Размер потока : 2,02 Гбайт (72%)
Заголовок : Pashendal.2007.x264.BDRip.AVC.MediaClub
Библиотека кодирования : x264 core 142 r2409+42 04be48a tMod [8-bit@4:2:0 X86]
Настройки программы : cabac=1 / ref=9 / deblock=1:-2:-2 / analyse=0x3:0x133 / me=umh / subme=11 / psy=1 / fade_compensate=0.00 / psy_rd=1.00:0.15 / mixed_ref=1 / me_range=32 / chroma_me=1 / trellis=2 / 8x8dct=1 / cqm=0 / deadzone=21,11 / fast_pskip=0 / chroma_qp_offset=-3 / threads=6 / lookahead_threads=1 / sliced_threads=0 / nr=0 / decimate=0 / interlaced=0 / bluray_compat=0 / constrained_intra=0 / fgo=0 / bframes=8 / b_pyramid=2 / b_adapt=2 / b_bias=0 / direct=3 / weightb=1 / open_gop=0 / weightp=2 / keyint=240 / keyint_min=23 / scenecut=40 / intra_refresh=0 / rc=2pass / mbtree=0 / bitrate=2600 / ratetol=1.0 / qcomp=0.60 / qpmin=0:0:0 / qpmax=69:69:69 / qpstep=4 / cplxblur=20.0 / qblur=0.5 / ip_ratio=1.40 / pb_ratio=1.30 / aq=2:0.80 / aq-sensitivity=10.00 / aq-factor=1.00:1.00:1.00 / aq2=0 / aq3=0
Язык : English
Default : Да
Forced : Да

Аудио #1
Идентификатор : 2
Формат : AC-3
Формат/Информация : Audio Coding 3
Расширение режима : CM (complete main)
Параметр Endianness формата : Big
Идентификатор кодека : A_AC3
Продолжительность : 1 ч. 54 м.
Вид битрейта : Постоянный
Битрейт : 448 Кбит/сек
Каналы : 6 каналов
Расположение каналов : Front: L C R, Side: L R, LFE
Частота : 48,0 КГц
Битовая глубина : 16 бит
Метод сжатия : С потерями
Размер потока : 366 Мбайт (13%)
Заголовок : TRACK_01_MVO_RUS_CPdigital
Язык : Russian
Default : Да
Forced : Да

Аудио #2
Идентификатор : 3
Формат : AC-3
Формат/Информация : Audio Coding 3
Расширение режима : CM (complete main)
Параметр Endianness формата : Big
Идентификатор кодека : A_AC3
Продолжительность : 1 ч. 54 м.
Вид битрейта : Постоянный
Битрейт : 448 Кбит/сек
Каналы : 6 каналов
Расположение каналов : Front: L C R, Side: L R, LFE
Частота : 48,0 КГц
Битовая глубина : 16 бит
Метод сжатия : С потерями
Размер потока : 366 Мбайт (13%)
Заголовок : TRACK_02_ORIGINAL_ENG
Язык : English
Default : Нет
Forced : Нет

Текст #1
Идентификатор : 4
Формат : UTF-8
Идентификатор кодека : S_TEXT/UTF8
Идентификатор кодека/Информация : UTF-8 Plain Text
Заголовок : TEXT_01_SUB_RUS_CPdigital
Язык : Russian
Default : Нет
Forced : Нет

Текст #2
Идентификатор : 5
Формат : UTF-8
Идентификатор кодека : S_TEXT/UTF8
Идентификатор кодека/Информация : UTF-8 Plain Text
Заголовок : TEXT_02_SUB_RUS
Язык : Russian
Default : Нет
Forced : Нет

Текст #3
Идентификатор : 6
Формат : UTF-8
Идентификатор кодека : S_TEXT/UTF8
Идентификатор кодека/Информация : UTF-8 Plain Text
Заголовок : TEXT_03_SUB_ENG
Язык : English
Default : Нет
Forced : Нет

Меню
00:00:00.000 : en:00:00:00.000
00:06:54.664 : en:00:06:54.664
00:15:11.619 : en:00:15:11.619
00:22:21.674 : en:00:22:21.674
00:31:30.180 : en:00:31:30.180
00:37:01.302 : en:00:37:01.302
00:43:17.970 : en:00:43:17.970
00:49:26.922 : en:00:49:26.922
00:54:29.850 : en:00:54:29.850
01:03:07.033 : en:01:03:07.033
01:10:49.495 : en:01:10:49.495
01:17:06.163 : en:01:17:06.163
01:21:55.953 : en:01:21:55.953
01:26:19.007 : en:01:26:19.007
01:34:54.439 : en:01:34:54.439
01:45:15.476 : en:01:45:15.476

...last pass...

x264.exe: --pass 2 --bitrate 2600 --preset slow --profile high --level 4.1 --ref 9 --aq-mode 2 --aq-strength 0.8 --deblock -2:-2 --merange 32 --bframes 8 --trellis 2 --no-fast-pskip --no-dct-decimate --psy-rd 1.00:0.15 --partitions all --subme 11 --no-mbtree --keyint 240 --sar 1:1 --stats "C:1Films CРелизыPasschendaele11111.log" --output "C:1Films CРелизыPasschendaele11111.mkv" "C:Temp428.avs"

avs [info]: 1024x436p 1:1 @ 24000/1001 fps (cfr)
avs [info]: color matrix: undef
x264 [info]: using SAR=1/1
x264 [info]: using cpu capabilities: MMX2 SSE2Fast SSSE3 SSE4.2 AVX
x264 [info]: profile High, level 4.1
x264 [info]: cabac=1 ref=9 deblock=1:-2:-2 analyse=0x3:0x133 me=umh subme=11 psy=1 fade_compensate=0.00 psy_rd=1.00:0.15 mixed_ref=1 me_range=32 chroma_me=1 trellis=2 8x8dct=1 cqm=0 deadzone=21,11 fast_pskip=0 chroma_qp_offset=-3 threads=6 lookahead_threads=1 sliced_threads=0 nr=0 decimate=0 interlaced=0 bluray_compat=0 constrained_intra=0 fgo=0 bframes=8 b_pyramid=2 b_adapt=2 b_bias=0 direct=3 weightb=1 open_gop=0 weightp=2 keyint=240 keyint_min=23 scenecut=40 intra_refresh=0 rc=2pass mbtree=0 bitrate=2600 ratetol=1.0 qcomp=0.60 qpmin=0:0:0 qpmax=69:69:69 qpstep=4 cplxblur=20.0 qblur=0.5 ip_ratio=1.40 pb_ratio=1.30 aq=2:0.80 aq-sensitivity=10.00 aq-factor=1.00:1.00:1.00 aq2=0 aq3=0
x264 [info]: started at Fri Aug 15 05:23:02 2014

x264 [info]: frame I:1430 Avg QP:15.35 size: 71508
x264 [info]: frame P:35855 Avg QP:18.04 size: 26487
x264 [info]: frame B:127113 Avg QP:19.90 size: 9210
x264 [info]: consecutive B-frames: 2.5% 2.7% 8.3% 18.4% 14.7% 42.8% 4.8% 2.6% 3.2%
x264 [info]: mb I I16..4: 11.8% 59.1% 29.0%
x264 [info]: mb P I16..4: 0.5% 11.6% 2.8% P16..4: 27.8% 34.2% 13.0% 2.6% 0.3% skip: 7.2%
x264 [info]: mb B I16..4: 0.1% 1.2% 0.4% B16..8: 34.7% 23.9% 4.1% direct: 7.3% skip:28.2% L0:42.1% L1:43.1% BI:14.7%
x264 [info]: 8x8 transform intra:73.2% inter:54.6%
x264 [info]: direct mvs spatial:98.4% temporal:1.6%
x264 [info]: coded y,uvDC,uvAC intra: 88.7% 79.7% 50.8% inter: 32.6% 26.6% 9.3%
x264 [info]: i16 v,h,dc,p: 29% 9% 17% 46%
x264 [info]: i8 v,h,dc,ddl,ddr,vr,hd,vl,hu: 12% 8% 8% 9% 13% 13% 12% 12% 13%
x264 [info]: i4 v,h,dc,ddl,ddr,vr,hd,vl,hu: 37% 6% 5% 6% 10% 10% 9% 8% 9%
x264 [info]: i8c dc,h,v,p: 35% 29% 21% 15%
x264 [info]: Weighted P-Frames: Y:13.0% UV:6.8%
x264 [info]: ref P L0: 41.1% 9.7% 20.4% 7.3% 7.0% 4.5% 4.6% 2.3% 2.6% 0.5% 0.1%
x264 [info]: ref B L0: 73.3% 12.5% 5.4% 3.1% 2.2% 2.1% 1.0% 0.4%
x264 [info]: ref B L1: 93.7% 6.3%
x264 [info]: kb/s:2593.23

encoded 164398 frames, 8.683 fps, 2593.24 kb/s, 2119.7 MB
Релиз от: | Автор рипа:



Скачать Пашендаль.Последний.бой.Passchendaele.(Пол.Гросс).[2008.драма.мелодрама.военный.история.BDRip-AVC].[MVO]+[Sub]x3.torrent без регистрации
Золото ЗОЛОТАЯ РАЗДАЧА! СКАЧАННОЕ НЕ ЗАСЧИТЫВАЕТСЯ! Золото
Дата: Зарегистрирован   [ Тип: внутренний ] Как тут cкачать?
MAGNET ссылка
MAGNET ссылка


Скачать .torrent

15 KB

Статус: проверено DHT
Скачан: торрент - 146 раз, раздача полностью - 52 раз
Размер: 2,79 GB
Оценка:  - (Голосов: 0)
Поблагодарили: 3
Поделиться ссылкой на эту раздачу с друзьями:
В контактеFacebookОдноклассникиTwitterLivejournalМой МирLiveinternet
 

 
Показать сообщения:    


Вы не можете начинать темы
Вы не можете отвечать на сообщения
Вы не можете редактировать свои сообщения
Вы не можете удалять свои сообщения
Вы не можете голосовать в опросах
Вы не можете прикреплять файлы к сообщениям
Вы можете скачивать файлы