Loading...
Error

Скачать Интервью с вампиром / Interview with the Vampire: The Vampire Chronicles (Нил Джордан) [1994, ужасы, фэнтези, драма, экранизация, BDRip-AVC] [Dub]x2+[MVO]x5+[DVO]x2+[AVO]x4+[Оригинал]+[Sub]x2 торрент без регистрации

 
Статистика раздачи
Размер:  6,18 GB   |    Скачан:  108 раз
Сидов:  1  [  0 KB/s  ]  
 
Автор Сообщение

Marsianka

[] 

Информация о фильме
Название: Интервью с вампиром
Оригинальное название: Interview with the Vampire: The Vampire Chronicles
Год выхода: 1994
Жанр: ужасы, фэнтези, драма, экранизация
Режиссер: Нил Джордан
В ролях: Брэд Питт, Том Круз, Кирстен Данст, Антонио Бандерас, Стивен Ри, Кристиан Слэйтер, Вирджиния МакКоллэм, Джон МакКоннелл, Майк Силиг, Беллина Логан, Тэнди Ньютон, Лайла Хэй Оуэн, Ли Е. Шарфштейн, Индра Ове, Хелен МакКрори, Монте Монтаг, Натали Блох-Лене, Жанетт Контомитра, Роджер Ллойд Пэк, Джордж Келли, Николь Дюбуа, Миша Бергезе, Рори Эдвардс, Марчел Юреш, Сьюзэн Линч

О фильме: К падкому на сенсации журналисту приходит вампир, чтобы поведать историю своей жизни. Все началось в 1791 году, когда молодой плантатор Луи, потеряв жену и ребенка, захотел умереть, но «родился для мрака». Выслушав рассказ вампира, журналист пожелал стать таким же, как он…



Страна: США
Студия: Geffen Pictures
Продолжительность: 02:02:33
Перевод: Дублированный, профессиональный многоголосый, профессиональный двухголосый, авторский одноголосый, украинский

Файл
Кодек: MPEG-4 AVC
Качество: BDRip-AVC
Видео: 2700 Кбит/с, 1024х576, 23.976 кадр/с
Аудио #1: Русский (AC3, 6 ch, 448 Кбит/с) / Дублированный (Мост Видео)
Аудио #2: Русский (AC3, 2 ch, 192 Кбит/с) / Дублированный (Варус Видео)
Аудио #3: Русский (AC3, 2 ch, 160 Кбит/с) / Профессиональный многоголосый
Аудио #4: Русский (AC3, 2 ch, 128 Кбит/с) / Профессиональный многоголосый (Россия)
Аудио #5: Русский (AC3, 2 ch, 128 Кбит/с) / Профессиональный многоголосый
Аудио #6: Русский (AC3, 2 ch, 192 Кбит/с) / Профессиональный многоголосый (НТВ)
Аудио #7: Русский (AC3, 6 ch, 448 Кбит/с) / Профессиональный двухголосый (П. Гланц и И. Королева)
Аудио #8: Русский (AC3, 2 ch, 192 Кбит/с) / Профессиональный двухголосый (SDI Media)
Аудио #9: Русский (AC3, 6 ch, 448 Кбит/с) / Авторский одноголосый (А. Гаврилов)
Аудио #10: Русский (AC3, 6 ch, 448 Кбит/с) / Авторский одноголосый (В. Горчаков)
Аудио #11: Русский (AC3, 6 ch, 448 Кбит/с) / Авторский одноголосый (Ю. Сербин)
Аудио #12: Русский (AC3, 6 ch, 448 Кбит/с) / Авторский одноголосый (Ю. Живов)
Аудио #13: Украинский (AC3, 6 ch, 384 Кбит/с) / Профессиональный многоголосый (Новый канал)
Аудио #14: Английский (AC3, 6 ch, 448 Кбит/с)
Субтитры: Русские, английские
Семпл
Общее
Уникальный идентификатор : 226718566862092530349715832887998029628 (0xAA90685E29F242BFACC9355AB63E1F3C)
Полное имя : D:2Films DРелизыIntervju.s.vampirom.1994.x264.BDRip.AVC.MediaClub.mkv
Формат : Matroska
Версия формата : Version 4 / Version 2
Размер файла : 6,18 Гбайт
Продолжительность : 2 ч. 2 м.
Общий поток : 7217 Кбит/сек
Название фильма : -= MediaClub =- rip by Lefevr
Дата кодирования : UTC 2014-09-30 17:48:33
Программа кодирования : mkvmerge v6.6.0 ('The Edge Of The In Between') built on Dec 1 2013 17:55:00
Библиотека кодирования : libebml v1.3.0 + libmatroska v1.4.1

Видео
Идентификатор : 1
Формат : AVC
Формат/Информация : Advanced Video Codec
Профиль формата : High@L4.1
Параметр CABAC формата : Да
Параметр ReFrames формата : 9 кадров
Идентификатор кодека : V_MPEG4/ISO/AVC
Продолжительность : 2 ч. 2 м.
Битрейт : 2561 Кбит/сек
Номинальный битрейт : 2700 Кбит/сек
Ширина : 1024 пикселя
Высота : 576 пикселей
Соотношение сторон : 16:9
Режим частоты кадров : Постоянный
Частота кадров : 23,976 кадра/сек
Цветовое пространство : YUV
Субдискретизация насыщенности : 4:2:0
Битовая глубина : 8 бит
Тип развёртки : Прогрессивная
Бит/(Пиксели*Кадры) : 0.181
Размер потока : 2,19 Гбайт (35%)
Заголовок : Intervju.s.vampirom.1994.x264.BDRip.AVC.MediaClub
Библиотека кодирования : x264 core 142 r2409+42 04be48a tMod [8-bit@4:2:0 X86]
Настройки программы : cabac=1 / ref=9 / deblock=1:-2:-2 / analyse=0x3:0x133 / me=umh / subme=11 / psy=1 / fade_compensate=0.00 / psy_rd=1.00:0.20 / mixed_ref=1 / me_range=32 / chroma_me=1 / trellis=2 / 8x8dct=1 / cqm=0 / deadzone=21,11 / fast_pskip=0 / chroma_qp_offset=-3 / threads=6 / lookahead_threads=1 / sliced_threads=0 / nr=0 / decimate=0 / interlaced=0 / bluray_compat=0 / constrained_intra=0 / fgo=0 / bframes=8 / b_pyramid=2 / b_adapt=2 / b_bias=0 / direct=3 / weightb=1 / open_gop=0 / weightp=2 / keyint=240 / keyint_min=23 / scenecut=40 / intra_refresh=0 / rc=2pass / mbtree=0 / bitrate=2700 / ratetol=1.0 / qcomp=0.60 / qpmin=0:0:0 / qpmax=69:69:69 / qpstep=4 / cplxblur=20.0 / qblur=0.5 / ip_ratio=1.40 / pb_ratio=1.30 / aq=1:1.00 / aq-sensitivity=10.00 / aq-factor=1.00:1.00:1.00 / aq2=0 / aq3=0
Язык : English
Default : Да
Forced : Да

Аудио #1
Идентификатор : 2
Формат : AC-3
Формат/Информация : Audio Coding 3
Расширение режима : CM (complete main)
Параметр Endianness формата : Big
Идентификатор кодека : A_AC3
Продолжительность : 2 ч. 2 м.
Вид битрейта : Постоянный
Битрейт : 448 Кбит/сек
Каналы : 6 каналов
Расположение каналов : Front: L C R, Side: L R, LFE
Частота : 48,0 КГц
Битовая глубина : 16 бит
Метод сжатия : С потерями
Размер потока : 393 Мбайт (6%)
Заголовок : TRACK_01_DUB_RUS_MostVideo
Язык : Russian
Default : Да
Forced : Да

Аудио #2
Идентификатор : 3
Формат : AC-3
Формат/Информация : Audio Coding 3
Расширение режима : CM (complete main)
Параметр Endianness формата : Big
Идентификатор кодека : A_AC3
Продолжительность : 2 ч. 2 м.
Вид битрейта : Постоянный
Битрейт : 192 Кбит/сек
Каналы : 2 канала
Расположение каналов : Front: L R
Частота : 48,0 КГц
Битовая глубина : 16 бит
Метод сжатия : С потерями
Размер потока : 168 Мбайт (3%)
Заголовок : TRACK_02_DUB_RUS_VarusVideo
Язык : Russian
Default : Нет
Forced : Нет

Аудио #3
Идентификатор : 4
Формат : AC-3
Формат/Информация : Audio Coding 3
Расширение режима : CM (complete main)
Параметр Endianness формата : Big
Идентификатор кодека : A_AC3
Продолжительность : 2 ч. 2 м.
Вид битрейта : Постоянный
Битрейт : 160 Кбит/сек
Каналы : 2 канала
Расположение каналов : Front: L R
Частота : 48,0 КГц
Битовая глубина : 16 бит
Метод сжатия : С потерями
Размер потока : 140 Мбайт (2%)
Заголовок : TRACK_03_MVO_RUS
Язык : Russian
Default : Нет
Forced : Нет

Аудио #4
Идентификатор : 5
Формат : AC-3
Формат/Информация : Audio Coding 3
Расширение режима : CM (complete main)
Параметр Endianness формата : Big
Идентификатор кодека : A_AC3
Продолжительность : 2 ч. 2 м.
Вид битрейта : Постоянный
Битрейт : 128 Кбит/сек
Каналы : 2 канала
Расположение каналов : Front: L R
Частота : 48,0 КГц
Битовая глубина : 16 бит
Метод сжатия : С потерями
Размер потока : 112 Мбайт (2%)
Заголовок : TRACK_04_MVO_RUS_PTP
Язык : Russian
Default : Нет
Forced : Нет

Аудио #5
Идентификатор : 6
Формат : AC-3
Формат/Информация : Audio Coding 3
Расширение режима : CM (complete main)
Параметр Endianness формата : Big
Идентификатор кодека : A_AC3
Продолжительность : 2 ч. 2 м.
Вид битрейта : Постоянный
Битрейт : 128 Кбит/сек
Каналы : 2 канала
Расположение каналов : Front: L R
Частота : 48,0 КГц
Битовая глубина : 16 бит
Метод сжатия : С потерями
Размер потока : 112 Мбайт (2%)
Заголовок : TRACK_05_MVO_RUS
Язык : Russian
Default : Нет
Forced : Нет

Аудио #6
Идентификатор : 7
Формат : AC-3
Формат/Информация : Audio Coding 3
Расширение режима : CM (complete main)
Параметр Endianness формата : Big
Идентификатор кодека : A_AC3
Продолжительность : 2 ч. 2 м.
Вид битрейта : Постоянный
Битрейт : 192 Кбит/сек
Каналы : 2 канала
Расположение каналов : Front: L R
Частота : 48,0 КГц
Битовая глубина : 16 бит
Метод сжатия : С потерями
Размер потока : 168 Мбайт (3%)
Заголовок : TRACK_06_MVO_RUS_HTB
Язык : Russian
Default : Нет
Forced : Нет

Аудио #7
Идентификатор : 8
Формат : AC-3
Формат/Информация : Audio Coding 3
Расширение режима : CM (complete main)
Параметр Endianness формата : Big
Идентификатор кодека : A_AC3
Продолжительность : 2 ч. 2 м.
Вид битрейта : Постоянный
Битрейт : 448 Кбит/сек
Каналы : 6 каналов
Расположение каналов : Front: L C R, Side: L R, LFE
Частота : 48,0 КГц
Битовая глубина : 16 бит
Метод сжатия : С потерями
Размер потока : 393 Мбайт (6%)
Заголовок : TRACK_07_DVO_RUS_Glanc&Koroleva
Язык : Russian
Default : Нет
Forced : Нет

Аудио #8
Идентификатор : 9
Формат : AC-3
Формат/Информация : Audio Coding 3
Расширение режима : CM (complete main)
Параметр Endianness формата : Big
Идентификатор кодека : A_AC3
Продолжительность : 2 ч. 2 м.
Вид битрейта : Постоянный
Битрейт : 192 Кбит/сек
Каналы : 2 канала
Расположение каналов : Front: L R
Частота : 48,0 КГц
Битовая глубина : 16 бит
Метод сжатия : С потерями
Размер потока : 168 Мбайт (3%)
Заголовок : TRACK_08_DVO_RUS_SDI Media
Язык : Russian
Default : Нет
Forced : Нет

Аудио #9
Идентификатор : 10
Формат : AC-3
Формат/Информация : Audio Coding 3
Расширение режима : CM (complete main)
Параметр Endianness формата : Big
Идентификатор кодека : A_AC3
Продолжительность : 2 ч. 2 м.
Вид битрейта : Постоянный
Битрейт : 448 Кбит/сек
Каналы : 6 каналов
Расположение каналов : Front: L C R, Side: L R, LFE
Частота : 48,0 КГц
Битовая глубина : 16 бит
Метод сжатия : С потерями
Размер потока : 393 Мбайт (6%)
Заголовок : TRACK_09_AVO_RUS_Gavrilov
Язык : Russian
Default : Нет
Forced : Нет

Аудио #10
Идентификатор : 11
Формат : AC-3
Формат/Информация : Audio Coding 3
Расширение режима : CM (complete main)
Параметр Endianness формата : Big
Идентификатор кодека : A_AC3
Продолжительность : 2 ч. 2 м.
Вид битрейта : Постоянный
Битрейт : 448 Кбит/сек
Каналы : 6 каналов
Расположение каналов : Front: L C R, Side: L R, LFE
Частота : 48,0 КГц
Битовая глубина : 16 бит
Метод сжатия : С потерями
Размер потока : 393 Мбайт (6%)
Заголовок : TRACK_10_AVO_RUS_Gorchakov
Язык : Russian
Default : Нет
Forced : Нет

Аудио #11
Идентификатор : 12
Формат : AC-3
Формат/Информация : Audio Coding 3
Расширение режима : CM (complete main)
Параметр Endianness формата : Big
Идентификатор кодека : A_AC3
Продолжительность : 2 ч. 2 м.
Вид битрейта : Постоянный
Битрейт : 448 Кбит/сек
Каналы : 6 каналов
Расположение каналов : Front: L C R, Side: L R, LFE
Частота : 48,0 КГц
Битовая глубина : 16 бит
Метод сжатия : С потерями
Размер потока : 393 Мбайт (6%)
Заголовок : TRACK_11_AVO_RUS_Serbin
Язык : Russian
Default : Нет
Forced : Нет

Аудио #12
Идентификатор : 13
Формат : AC-3
Формат/Информация : Audio Coding 3
Расширение режима : CM (complete main)
Параметр Endianness формата : Big
Идентификатор кодека : A_AC3
Продолжительность : 2 ч. 2 м.
Вид битрейта : Постоянный
Битрейт : 448 Кбит/сек
Каналы : 6 каналов
Расположение каналов : Front: L C R, Side: L R, LFE
Частота : 48,0 КГц
Битовая глубина : 16 бит
Метод сжатия : С потерями
Размер потока : 393 Мбайт (6%)
Заголовок : TRACK_12_AVO_RUS_Zhivov
Язык : Russian
Default : Нет
Forced : Нет

Аудио #13
Идентификатор : 14
Формат : AC-3
Формат/Информация : Audio Coding 3
Расширение режима : CM (complete main)
Параметр Endianness формата : Big
Идентификатор кодека : A_AC3
Продолжительность : 2 ч. 2 м.
Вид битрейта : Постоянный
Битрейт : 384 Кбит/сек
Каналы : 6 каналов
Расположение каналов : Front: L C R, Side: L R, LFE
Частота : 48,0 КГц
Битовая глубина : 16 бит
Метод сжатия : С потерями
Размер потока : 337 Мбайт (5%)
Заголовок : TRACK_13_MVO_UKR_NovyjKanal
Язык : Ukrainian
Default : Нет
Forced : Нет

Аудио #14
Идентификатор : 15
Формат : AC-3
Формат/Информация : Audio Coding 3
Расширение режима : CM (complete main)
Параметр Endianness формата : Big
Идентификатор кодека : A_AC3
Продолжительность : 2 ч. 2 м.
Вид битрейта : Постоянный
Битрейт : 448 Кбит/сек
Каналы : 6 каналов
Расположение каналов : Front: L C R, Side: L R, LFE
Частота : 48,0 КГц
Битовая глубина : 16 бит
Метод сжатия : С потерями
Размер потока : 393 Мбайт (6%)
Заголовок : TRACK_14_ORIGINAL_ENG
Язык : English
Default : Нет
Forced : Нет

Меню
00:00:00.000 : en:00:00:00.000
00:03:01.472 : en:00:03:01.472
00:05:51.100 : en:00:05:51.100
00:09:30.486 : en:00:09:30.486
00:11:23.891 : en:00:11:23.891
00:16:17.226 : en:00:16:17.226
00:24:22.002 : en:00:24:22.002
00:30:51.766 : en:00:30:51.766
00:36:15.339 : en:00:36:15.339
00:40:51.323 : en:00:40:51.323
00:50:17.389 : en:00:50:17.389
00:56:40.772 : en:00:56:40.772
01:08:55.381 : en:01:08:55.381
01:10:29.099 : en:01:10:29.099
01:11:31.704 : en:01:11:31.704
01:14:11.280 : en:01:14:11.280
01:19:44.571 : en:01:19:44.571
01:23:56.614 : en:01:23:56.614
01:24:32.484 : en:01:24:32.484
01:25:51.896 : en:01:25:51.896
01:30:09.278 : en:01:30:09.278
01:34:13.689 : en:01:34:13.689
01:36:23.944 : en:01:36:23.944
01:40:33.694 : en:01:40:33.694
01:43:35.000 : en:01:43:35.000
01:46:00.395 : en:01:46:00.395
01:47:05.836 : en:01:47:05.836
01:52:49.137 : en:01:52:49.137
01:54:47.088 : en:01:54:47.088

...last pass...

x264.exe: --pass 2 --bitrate 2700 --preset slow --profile high --level 4.1 --ref 9 --deblock -2:-2 --merange 32 --bframes 8 --trellis 2 --no-fast-pskip --no-dct-decimate --psy-rd 1.00:0.20 --partitions all --subme 11 --no-mbtree --keyint 240 --sar 1:1 --stats "D:Interview РЕЛИЗ11111.log" --output "D:Interview РЕЛИЗ11111.mkv" "D:Temp454.avs"

avs [info]: 1024x576p 1:1 @ 24000/1001 fps (cfr)
avs [info]: color matrix: undef
x264 [info]: using SAR=1/1
x264 [info]: using cpu capabilities: MMX2 SSE2Fast SSSE3 SSE4.2 AVX
x264 [info]: profile High, level 4.1
x264 [info]: cabac=1 ref=9 deblock=1:-2:-2 analyse=0x3:0x133 me=umh subme=11 psy=1 fade_compensate=0.00 psy_rd=1.00:0.20 mixed_ref=1 me_range=32 chroma_me=1 trellis=2 8x8dct=1 cqm=0 deadzone=21,11 fast_pskip=0 chroma_qp_offset=-3 threads=6 lookahead_threads=1 sliced_threads=0 nr=0 decimate=0 interlaced=0 bluray_compat=0 constrained_intra=0 fgo=0 bframes=8 b_pyramid=2 b_adapt=2 b_bias=0 direct=3 weightb=1 open_gop=0 weightp=2 keyint=240 keyint_min=23 scenecut=40 intra_refresh=0 rc=2pass mbtree=0 bitrate=2700 ratetol=1.0 qcomp=0.60 qpmin=0:0:0 qpmax=69:69:69 qpstep=4 cplxblur=20.0 qblur=0.5 ip_ratio=1.40 pb_ratio=1.30 aq=1:1.00 aq-sensitivity=10.00 aq-factor=1.00:1.00:1.00 aq2=0 aq3=0
x264 [info]: started at Thu Sep 25 23:19:49 2014

x264 [info]: frame I:1072 Avg QP:14.42 size: 85785
x264 [info]: frame P:36920 Avg QP:17.05 size: 29228
x264 [info]: frame B:138311 Avg QP:18.91 size: 9473
x264 [info]: consecutive B-frames: 1.2% 2.3% 4.7% 28.9% 9.9% 42.3% 2.5% 7.9% 0.2%
x264 [info]: mb I I16..4: 17.6% 66.9% 15.5%
x264 [info]: mb P I16..4: 0.8% 14.2% 0.8% P16..4: 30.6% 37.3% 13.4% 1.9% 0.1% skip: 1.0%
x264 [info]: mb B I16..4: 0.0% 0.8% 0.1% B16..8: 36.2% 20.7% 2.9% direct: 6.8% skip:32.5% L0:44.9% L1:45.3% BI: 9.9%
x264 [info]: 8x8 transform intra:86.4% inter:51.3%
x264 [info]: direct mvs spatial:98.7% temporal:1.3%
x264 [info]: coded y,uvDC,uvAC intra: 93.5% 88.5% 70.7% inter: 28.0% 29.3% 13.4%
x264 [info]: i16 v,h,dc,p: 31% 6% 23% 40%
x264 [info]: i8 v,h,dc,ddl,ddr,vr,hd,vl,hu: 9% 7% 12% 10% 13% 13% 11% 12% 13%
x264 [info]: i4 v,h,dc,ddl,ddr,vr,hd,vl,hu: 9% 6% 7% 10% 15% 15% 13% 12% 13%
x264 [info]: i8c dc,h,v,p: 50% 19% 16% 15%
x264 [info]: Weighted P-Frames: Y:12.9% UV:6.3%
x264 [info]: ref P L0: 40.0% 6.5% 19.8% 8.7% 7.4% 5.6% 5.2% 3.0% 3.1% 0.5% 0.0%
x264 [info]: ref B L0: 75.5% 11.2% 5.1% 2.7% 2.0% 1.8% 1.1% 0.5%
x264 [info]: ref B L1: 94.6% 5.4%
x264 [info]: kb/s:2699.47

x264 [total]: encoded 176303 frames, 7.341 fps, 2699.47 kb/s, 2366.3 MB
Релиз от: | Автор рипа:



Скачать Интервью.с.вампиром.Interview.with.the.Vampire.The.Vampire.Chronicles.(Нил.Джордан).[1994.ужасы.фэнтези.драма.экранизация.BDRip-AVC].[Dub]x2+[MVO]x5+[DVO]x2+[AVO]x4+[Оригинал]+[Sub]x2.torrent без регистрации
Золото ЗОЛОТАЯ РАЗДАЧА! СКАЧАННОЕ НЕ ЗАСЧИТЫВАЕТСЯ! Золото
Дата: Зарегистрирован   [ Тип: внутренний ] Как тут cкачать?
MAGNET ссылка
MAGNET ссылка


Скачать .torrent

16 KB

Статус: проверено DHT
Скачан: торрент - 108 раз, раздача полностью - 34 раз
Размер: 6,18 GB
Оценка:  - (Голосов: 0)
Поблагодарили: 0
Поделиться ссылкой на эту раздачу с друзьями:
В контактеFacebookОдноклассникиTwitterLivejournalМой МирLiveinternet
 

 
Показать сообщения:    


Вы не можете начинать темы
Вы не можете отвечать на сообщения
Вы не можете редактировать свои сообщения
Вы не можете удалять свои сообщения
Вы не можете голосовать в опросах
Вы не можете прикреплять файлы к сообщениям
Вы можете скачивать файлы