Loading...
Error

Скачать Альфа Дог / Alpha Dog (Ник Кассаветис) [2006, драма, криминал, биография, BDRip-AVC] [Dub]+[AVO]x2+[VO]+[MVO]+[Оригинал]+[Sub]x2 торрент без регистрации

 
Статистика раздачи
Размер:  2,75 GB   |    Скачан:  131 раз
Сидов:  1  [  0 KB/s  ]  
 
Автор Сообщение

Marsianka

[] 

Информация о фильме
Название: Альфа Дог
Оригинальное название: Alpha Dog
Год выхода: 2006
Жанр: драма, криминал, биография
Режиссер: Ник Кассаветис
В ролях: Эмиль Хирш, Антон Ельчин, Джастин Тимберлэйк, Бен Фостер, Шон Хэтоси, Брюс Уиллис, Шэрон Стоун, Хезер Уолкист, Аманда Сайфред, Гарри Дин Стэнтон, Доминик Суэйн, Оливия Уайлд, Дэвид Торнтон, Крис Кинкейд, Крис Маркетт, Алекс Кингстон, Винсент Картайзер, Бобби Купер, Эмбер Хёрд, Лукас Хаас, Холт МакКэллани, Мэттью Бэрри, Фернандо Варгас, Алекс Соловитц, Алек Виджил

О фильме: Для подростков элитных районов Лос-Анджелеса, у которых слишком много времени и слишком много денег, унылые дни тянутся один за другим. Они развлекаются тем, что играют в головорезов и поклоняются рэпу, видеоиграм и кинофильмам. Когда не несешь ни за что ответственности, случиться может все что угодно… Наркоторговец Джонни Трулав - самый молодой преступник, оказавшийся у ФБР в розыскном списке № 1. Одно неправильно принятое решение, роковая ошибка, неудачный ход, и жизнь преуспевающего драг-диллера летит под откос. По законам круговой поруки один за другим гибнут все его друзья. Менее чем за сутки Джонни становится легендой криминального мира. Ему инкриминируют жестокое убийство 15-летнего подростка…



Страна: США
Студия: A-Mark Entertainment, Alpha Dog LLC, Sidney Kimmel Entertainment, VIP 2 Medienfonds
Продолжительность: 01:57:23
Перевод: Дублированный, авторский одноголосый, любительский одноголосый, украинский

Файл
Кодек: MPEG-4 AVC
Качество: BDRip-AVC
Видео: 1300 Кбит/с, 1024х434, 24.000 кадр/с
Аудио #1: Русский (AC3, 6 ch, 448 Кбит/с) / Дублированный (Парадиз)
Аудио #2: Русский (AC3, 6 ch, 448 Кбит/с) / Авторский одноголосый (Ю. Немахов)
Аудио #3: Русский (AC3, 2 ch, 128 Кбит/с) / Авторский одноголосый (А. Карповский (альтернативный перевод "Кубинский заговор или группа Альфа"))
Аудио #4: Русский (AC3, 6 ch, 384 Кбит/с) / Любительский одноголосый (sf@irat)
Аудио #5: Украинский (AC3, 2 ch, 192 Кбит/с) / Профессиональный многоголосый (1+1)
Аудио #6: Английский (AC3, 6 ch, 448 Кбит/с)
Субтитры: Русские, английские (SDH)
Внимание! В переводах А. Карповского и sf@irat присутствует ненормативная лексика!
"Кубинский заговор или группа Альфа": В 80-е годы на территории штата Калифорния революционно-настроенными товарищами из СССР в составе группы "Альфа" была создана подпольная кубинская организация, поставившая своей целью свергнуть правительство США. Для этого с Кубы были поставлены все ресурсы и дело приняло нешуточный и серьезный оборот.
Семпл
Общее
Уникальный идентификатор : 219094955209206119288288311882599041881 (0xA4D4274B218D47898A133D61B5B70B59)
Полное имя : D:2Films DРелизыAlfa.Dog.2006.x264.BDRip.AVC.MediaClub.mkv
Формат : Matroska
Версия формата : Version 4 / Version 2
Размер файла : 2,75 Гбайт
Продолжительность : 1 ч. 57 м.
Общий поток : 3351 Кбит/сек
Название фильма : -= MediaClub =- rip by Lefevr
Дата кодирования : UTC 2014-09-18 15:19:06
Программа кодирования : mkvmerge v6.6.0 ('The Edge Of The In Between') built on Dec 1 2013 17:55:00
Библиотека кодирования : libebml v1.3.0 + libmatroska v1.4.1

Видео
Идентификатор : 1
Формат : AVC
Формат/Информация : Advanced Video Codec
Профиль формата : High@L4.1
Параметр CABAC формата : Да
Параметр ReFrames формата : 9 кадров
Идентификатор кодека : V_MPEG4/ISO/AVC
Продолжительность : 1 ч. 57 м.
Битрейт : 1237 Кбит/сек
Номинальный битрейт : 1300 Кбит/сек
Ширина : 1024 пикселя
Высота : 434 пикселя
Соотношение сторон : 2,35:1
Режим частоты кадров : Постоянный
Частота кадров : 24,000 кадра/сек
Цветовое пространство : YUV
Субдискретизация насыщенности : 4:2:0
Битовая глубина : 8 бит
Тип развёртки : Прогрессивная
Бит/(Пиксели*Кадры) : 0.116
Размер потока : 1,01 Гбайт (37%)
Заголовок : Alfa.Dog.2006.x264.BDRip.AVC.MediaClub
Библиотека кодирования : x264 core 142 r2409+42 04be48a tMod [8-bit@4:2:0 X86]
Настройки программы : cabac=1 / ref=9 / deblock=1:-2:-2 / analyse=0x3:0x133 / me=umh / subme=11 / psy=1 / fade_compensate=0.00 / psy_rd=1.00:0.15 / mixed_ref=1 / me_range=32 / chroma_me=1 / trellis=2 / 8x8dct=1 / cqm=0 / deadzone=21,11 / fast_pskip=0 / chroma_qp_offset=-3 / threads=6 / lookahead_threads=1 / sliced_threads=0 / nr=0 / decimate=0 / interlaced=0 / bluray_compat=0 / constrained_intra=0 / fgo=0 / bframes=8 / b_pyramid=2 / b_adapt=2 / b_bias=0 / direct=3 / weightb=1 / open_gop=0 / weightp=2 / keyint=240 / keyint_min=23 / scenecut=40 / intra_refresh=0 / rc=2pass / mbtree=0 / bitrate=1300 / ratetol=1.0 / qcomp=0.60 / qpmin=0:0:0 / qpmax=69:69:69 / qpstep=4 / cplxblur=20.0 / qblur=0.5 / ip_ratio=1.40 / pb_ratio=1.30 / aq=1:1.00 / aq-sensitivity=10.00 / aq-factor=1.00:1.00:1.00 / aq2=0 / aq3=0
Язык : English
Default : Да
Forced : Да

Аудио #1
Идентификатор : 2
Формат : AC-3
Формат/Информация : Audio Coding 3
Расширение режима : CM (complete main)
Параметр Endianness формата : Big
Идентификатор кодека : A_AC3
Продолжительность : 1 ч. 57 м.
Вид битрейта : Постоянный
Битрейт : 448 Кбит/сек
Каналы : 6 каналов
Расположение каналов : Front: L C R, Side: L R, LFE
Частота : 48,0 КГц
Битовая глубина : 16 бит
Метод сжатия : С потерями
Размер потока : 376 Мбайт (13%)
Заголовок : TRACK_01_DUB_RUS_Paradiz
Язык : Russian
Default : Да
Forced : Да

Аудио #2
Идентификатор : 3
Формат : AC-3
Формат/Информация : Audio Coding 3
Расширение режима : CM (complete main)
Параметр Endianness формата : Big
Идентификатор кодека : A_AC3
Продолжительность : 1 ч. 57 м.
Вид битрейта : Постоянный
Битрейт : 448 Кбит/сек
Каналы : 6 каналов
Расположение каналов : Front: L C R, Side: L R, LFE
Частота : 48,0 КГц
Битовая глубина : 16 бит
Метод сжатия : С потерями
Размер потока : 376 Мбайт (13%)
Заголовок : TRACK_02_AVO_RUS_Nemahov
Язык : Russian
Default : Нет
Forced : Нет

Аудио #3
Идентификатор : 4
Формат : AC-3
Формат/Информация : Audio Coding 3
Расширение режима : CM (complete main)
Параметр Endianness формата : Big
Идентификатор кодека : A_AC3
Продолжительность : 1 ч. 57 м.
Вид битрейта : Постоянный
Битрейт : 128 Кбит/сек
Каналы : 2 канала
Расположение каналов : Front: L R
Частота : 48,0 КГц
Битовая глубина : 16 бит
Метод сжатия : С потерями
Размер потока : 107 Мбайт (4%)
Заголовок : TRACK_03_AVO_RUS_Karpovskij_KubinskijZagovor
Язык : Russian
Default : Нет
Forced : Нет

Аудио #4
Идентификатор : 5
Формат : AC-3
Формат/Информация : Audio Coding 3
Расширение режима : CM (complete main)
Параметр Endianness формата : Big
Идентификатор кодека : A_AC3
Продолжительность : 1 ч. 57 м.
Вид битрейта : Постоянный
Битрейт : 384 Кбит/сек
Каналы : 6 каналов
Расположение каналов : Front: L C R, Side: L R, LFE
Частота : 48,0 КГц
Битовая глубина : 16 бит
Метод сжатия : С потерями
Размер потока : 322 Мбайт (11%)
Заголовок : TRACK_04_VO_RUS_sf@irat_nef
Язык : Russian
Default : Нет
Forced : Нет

Аудио #5
Идентификатор : 6
Формат : AC-3
Формат/Информация : Audio Coding 3
Расширение режима : CM (complete main)
Параметр Endianness формата : Big
Идентификатор кодека : A_AC3
Продолжительность : 1 ч. 57 м.
Вид битрейта : Постоянный
Битрейт : 192 Кбит/сек
Каналы : 2 канала
Расположение каналов : Front: L R
Частота : 48,0 КГц
Битовая глубина : 16 бит
Метод сжатия : С потерями
Размер потока : 161 Мбайт (6%)
Заголовок : TRACK_05_MVO_UKR_1+1
Язык : Ukrainian
Default : Нет
Forced : Нет

Аудио #6
Идентификатор : 7
Формат : AC-3
Формат/Информация : Audio Coding 3
Расширение режима : CM (complete main)
Параметр Endianness формата : Big
Идентификатор кодека : A_AC3
Продолжительность : 1 ч. 57 м.
Вид битрейта : Постоянный
Битрейт : 448 Кбит/сек
Каналы : 6 каналов
Расположение каналов : Front: L C R, Side: L R, LFE
Частота : 48,0 КГц
Битовая глубина : 16 бит
Метод сжатия : С потерями
Размер потока : 376 Мбайт (13%)
Заголовок : TRACK_06_ORIGINAL_ENG
Язык : English
Default : Нет
Forced : Нет

Текст #1
Идентификатор : 8
Формат : UTF-8
Идентификатор кодека : S_TEXT/UTF8
Идентификатор кодека/Информация : UTF-8 Plain Text
Заголовок : TEXT_01_SUB_RUS
Язык : Russian
Default : Нет
Forced : Нет

Текст #2
Идентификатор : 9
Формат : UTF-8
Идентификатор кодека : S_TEXT/UTF8
Идентификатор кодека/Информация : UTF-8 Plain Text
Заголовок : TEXT_02_SUB_ENG_SDH
Язык : English
Default : Нет
Forced : Нет

Меню
00:00:00.000 : en:Parenting
00:04:33.982 : en:Business As Usual
00:07:55.475 : en:Knocking 'em Dead
00:14:01.340 : en:It's On
00:21:00.008 : en:Got to Get Out
00:25:59.224 : en:Pay Up
00:29:52.123 : en:Playing Games
00:35:51.232 : en:Day One
00:43:29.773 : en:Looking for Truelove
00:50:30.819 : en:Day Two
00:58:25.460 : en:Finding a Solution
01:06:19.433 : en:Day Three
01:15:36.156 : en:Marco... Polo...
01:19:58.251 : en:Going Home
01:24:58.676 : en:Looking at Life
01:30:16.119 : en:No Choice
01:38:16.599 : en:Their Own Rules
01:44:14.248 : en:Closing In
01:48:24.664 : en:On the Run
01:53:09.157 : en:End Credits

...last pass...

x264.exe: --pass 2 --bitrate 1300 --preset slow --profile high --level 4.1 --ref 9 --deblock -2:-2 --merange 32 --bframes 8 --trellis 2 --no-fast-pskip --no-dct-decimate --psy-rd 1.00:0.15 --partitions all --subme 11 --no-mbtree --keyint 240 --sar 1:1 --stats "C:1Films CРелизыAlfa Dog11111.log" --output "C:1Films CРелизыAlfa Dog11111.mkv" "C:Temp369.avs"

avs [info]: 1024x434p 1:1 @ 10000000/416667 fps (cfr)
avs [info]: color matrix: undef
x264 [info]: using SAR=1/1
x264 [info]: using cpu capabilities: MMX2 SSE2Fast SSSE3 SSE4.2 AVX
x264 [info]: profile High, level 4.1
x264 [info]: cabac=1 ref=9 deblock=1:-2:-2 analyse=0x3:0x133 me=umh subme=11 psy=1 fade_compensate=0.00 psy_rd=1.00:0.15 mixed_ref=1 me_range=32 chroma_me=1 trellis=2 8x8dct=1 cqm=0 deadzone=21,11 fast_pskip=0 chroma_qp_offset=-3 threads=6 lookahead_threads=1 sliced_threads=0 nr=0 decimate=0 interlaced=0 bluray_compat=0 constrained_intra=0 fgo=0 bframes=8 b_pyramid=2 b_adapt=2 b_bias=0 direct=3 weightb=1 open_gop=0 weightp=2 keyint=240 keyint_min=23 scenecut=40 intra_refresh=0 rc=2pass mbtree=0 bitrate=1300 ratetol=1.0 qcomp=0.60 qpmin=0:0:0 qpmax=69:69:69 qpstep=4 cplxblur=20.0 qblur=0.5 ip_ratio=1.40 pb_ratio=1.30 aq=1:1.00 aq-sensitivity=10.00 aq-factor=1.00:1.00:1.00 aq2=0 aq3=0
x264 [info]: started at Wed Jul 02 20:55:36 2014

x264 [info]: frame I:1297 Avg QP:15.04 size: 52604
x264 [info]: frame P:34748 Avg QP:18.09 size: 14346
x264 [info]: frame B:132985 Avg QP:19.72 size: 4345
x264 [info]: consecutive B-frames: 1.7% 2.9% 6.1% 17.9% 19.9% 28.6% 9.9% 7.0% 6.0%
x264 [info]: mb I I16..4: 9.4% 70.2% 20.4%
x264 [info]: mb P I16..4: 1.5% 11.5% 1.9% P16..4: 35.4% 33.4% 8.7% 1.0% 0.1% skip: 6.6%
x264 [info]: mb B I16..4: 0.3% 1.4% 0.2% B16..8: 35.7% 17.0% 2.0% direct: 2.9% skip:40.4% L0:46.3% L1:45.9% BI: 7.8%
x264 [info]: 8x8 transform intra:74.6% inter:61.3%
x264 [info]: direct mvs spatial:97.8% temporal:2.2%
x264 [info]: coded y,uvDC,uvAC intra: 73.0% 78.3% 50.1% inter: 13.3% 14.1% 5.9%
x264 [info]: i16 v,h,dc,p: 35% 15% 7% 43%
x264 [info]: i8 v,h,dc,ddl,ddr,vr,hd,vl,hu: 15% 7% 10% 8% 11% 13% 11% 12% 13%
x264 [info]: i4 v,h,dc,ddl,ddr,vr,hd,vl,hu: 27% 7% 17% 6% 9% 10% 8% 8% 8%
x264 [info]: i8c dc,h,v,p: 34% 29% 20% 17%
x264 [info]: Weighted P-Frames: Y:6.1% UV:3.2%
x264 [info]: ref P L0: 45.3% 7.2% 19.6% 7.5% 6.7% 4.6% 4.2% 2.2% 2.4% 0.3% 0.0%
x264 [info]: ref B L0: 65.4% 14.4% 7.9% 4.2% 3.6% 2.7% 1.4% 0.5%
x264 [info]: ref B L1: 90.2% 9.8%
x264 [info]: kb/s:1300.11

encoded 169030 frames, 12.08 fps, 1300.11 kb/s, 1091.5 MB
Релиз от: | Автор рипа:

• За синхронизацию дорог с авторским переводом Карповского и любительским одноголосым sf@irat огромное спасибо Викс.



Скачать Альфа.Дог.Alpha.Dog.(Ник.Кассаветис).[2006.драма.криминал.биография.BDRip-AVC].[Dub]+[AVO]x2+[VO]+[MVO]+[Оригинал]+[Sub]x2.torrent без регистрации
Золото ЗОЛОТАЯ РАЗДАЧА! СКАЧАННОЕ НЕ ЗАСЧИТЫВАЕТСЯ! Золото
Дата: Зарегистрирован   [ Тип: внутренний ] Как тут cкачать?
MAGNET ссылка
MAGNET ссылка


Скачать .torrent

14 KB

Статус: проверено DHT
Скачан: торрент - 131 раз, раздача полностью - 65 раз
Размер: 2,75 GB
Оценка:  - (Голосов: 0)
Поблагодарили: 6
Поделиться ссылкой на эту раздачу с друзьями:
В контактеFacebookОдноклассникиTwitterLivejournalМой МирLiveinternet
 

 
Показать сообщения:    


Вы не можете начинать темы
Вы не можете отвечать на сообщения
Вы не можете редактировать свои сообщения
Вы не можете удалять свои сообщения
Вы не можете голосовать в опросах
Вы не можете прикреплять файлы к сообщениям
Вы можете скачивать файлы