Loading...
Error

Скачать Дракула Брэма Стокера / Bram Stoker's Dracula (Френсис Форд Коппола) [1992,ужасы, триллер, фэнтези, мелодрама, драма, экранизация, BDRip-AVC] [Dub]x2+[MVO]x4+[AVO]x4+[Оригинал]+[Sub]x2 торрент без регистрации

 
Статистика раздачи
Размер:  5,64 GB   |    Скачан:  129 раз
Сидов:  1  [  0 KB/s  ]  
 
Автор Сообщение

Marsianka

[] 

Информация о фильме
Название: Дракула Брэма Стокера
Оригинальное название: Bram Stoker's Dracula
Год выхода: 1992
Жанр: ужасы, триллер, фэнтези, мелодрама, драма, экранизация
Режиссер: Френсис Форд Коппола
В ролях: Гари Олдман, Вайнона Райдер, Энтони Хопкинс, Киану Ривз, Ричард Э. Грант, Кэри Элвис, Билл Кэмпбелл, Сэди Фрост, Том Уэйтс, Моника Беллуччи, Микаэла Берку, Флорина Кендрик, Джей Робинсон, Лори Фрэнкс, Мод Уинчестер, Роберт Гетз, Нэнси Лайнхэн Чарльз, Татьяна Фон Фюрстенберг, Жуль Сильвестр, Хьюберт Уэллс, Дэниэл Ньюман, Хони Лоурен, Джуди Даймонд, Роберт Бакинхем

О фильме: Страшными легендами и леденящими кровь суевериями полнятся склоны Карпатских гор, но тебе молодому и образованному англичанину не пристало обращать внимания на подобные детские сказки! Особенно, если твои мысли заняты ждущей тебя дома красавицей-невестой, что по возвращении из этой поездки в Трансильванию станет тебе любящей и преданной женой. Только почему же этот клиент, решивший с твоей помощью купить недвижимость в Лондоне, кажется тебе таким странным и даже зловещим?.. С чем все-таки столкнула тебя судьба?.. И сможешь ли ты в итоге одолеть то, во что сам никогда не верил?..



Страна: США
Студия: American Zoetrope, Columbia Pictures Corporation, Osiris Films
Продолжительность: 02:07:23
Перевод: Дублированный, профессиональный многоголосый, авторский одноголосый, украинский

Файл
Кодек: MPEG-4 AVC
Качество: BDRip-AVC
Видео: 1800 Кбит/с, 1024х554, 23.976 кадр/с
Аудио #1: Русский (AC3, 6 ch, 448 Кбит/с) / Дублированный (FilmlinesInt)
Аудио #2: Русский (AC3, 2 ch, 192 Кбит/с) / Дублированный (Nevafilm)
Аудио #3: Русский (AC3, 6 ch, 448 Кбит/с) / Профессиональный многоголосый (R5)
Аудио #4: Русский (AC3, 6 ch, 448 Кбит/с) / Профессиональный многоголосый (Superbit)
Аудио #5: Русский (AC3, 6 ch, 448 Кбит/с) / Авторский одноголосый (В. Горчаков)
Аудио #6: Русский (AC3, 6 ch, 448 Кбит/с) / Авторский одноголосый (А. Михалев)
Аудио #7: Русский (AC3, 6 ch, 448 Кбит/с) / Авторский одноголосый (Ю. Сербин)
Аудио #8: Русский (AC3, 6 ch, 448 Кбит/с) / Авторский одноголосый (Л. Володарский)
Аудио #9: Украинский (AC3, 6 ch, 384 Кбит/с) / Профессиональный многоголосый (ТакТребаПродакшн)
Аудио #10: Украинский (AC3, 6 ch, 384 Кбит/с) / Профессиональный многоголосый (ТРК "Украина")
Аудио #11: Английский (AC3, 6 ch, 448 Кбит/с)
Субтитры: Русские (полные, форсированные), английские
Семпл
Общее
Уникальный идентификатор : 229723952557823821650122856090647851740 (0xACD33952A6C360A58C18A2D20396F2DC)
Полное имя : D:2Films DРелизыDrakula.Brjema.Stokera.1992.x264.BDRip.AVC.MediaClub.mkv
Формат : Matroska
Версия формата : Version 4 / Version 2
Размер файла : 5,64 Гбайт
Продолжительность : 2 ч. 7 м.
Общий поток : 6334 Кбит/сек
Название фильма : -= MediaClub =- rip by Lefevr
Дата кодирования : UTC 2014-09-30 14:03:15
Программа кодирования : mkvmerge v6.6.0 ('The Edge Of The In Between') built on Dec 1 2013 17:55:00
Библиотека кодирования : libebml v1.3.0 + libmatroska v1.4.1

Видео
Идентификатор : 1
Формат : AVC
Формат/Информация : Advanced Video Codec
Профиль формата : High@L4.1
Параметр CABAC формата : Да
Параметр ReFrames формата : 9 кадров
Идентификатор кодека : V_MPEG4/ISO/AVC
Продолжительность : 2 ч. 7 м.
Битрейт : 1664 Кбит/сек
Номинальный битрейт : 1800 Кбит/сек
Ширина : 1024 пикселя
Высота : 554 пикселя
Соотношение сторон : 1,85:1
Режим частоты кадров : Постоянный
Частота кадров : 23,976 кадра/сек
Цветовое пространство : YUV
Субдискретизация насыщенности : 4:2:0
Битовая глубина : 8 бит
Тип развёртки : Прогрессивная
Бит/(Пиксели*Кадры) : 0.122
Размер потока : 1,48 Гбайт (26%)
Заголовок : Drakula.Brjema.Stokera.1992.x264.BDRip.AVC.MediaClub
Библиотека кодирования : x264 core 142 r2409+42 04be48a tMod [8-bit@4:2:0 X86]
Настройки программы : cabac=1 / ref=9 / deblock=1:-2:-2 / analyse=0x3:0x133 / me=umh / subme=11 / psy=1 / fade_compensate=0.00 / psy_rd=1.00:0.15 / mixed_ref=1 / me_range=32 / chroma_me=1 / trellis=2 / 8x8dct=1 / cqm=0 / deadzone=21,11 / fast_pskip=0 / chroma_qp_offset=-3 / threads=6 / lookahead_threads=1 / sliced_threads=0 / nr=0 / decimate=0 / interlaced=0 / bluray_compat=0 / constrained_intra=0 / fgo=0 / bframes=8 / b_pyramid=2 / b_adapt=2 / b_bias=0 / direct=3 / weightb=1 / open_gop=0 / weightp=2 / keyint=240 / keyint_min=23 / scenecut=40 / intra_refresh=0 / rc=2pass / mbtree=0 / bitrate=1800 / ratetol=1.0 / qcomp=0.60 / qpmin=0:0:0 / qpmax=69:69:69 / qpstep=4 / cplxblur=20.0 / qblur=0.5 / ip_ratio=1.40 / pb_ratio=1.30 / aq=1:1.00 / aq-sensitivity=10.00 / aq-factor=1.00:1.00:1.00 / aq2=0 / aq3=0
Язык : English
Default : Да
Forced : Да

Аудио #1
Идентификатор : 2
Формат : AC-3
Формат/Информация : Audio Coding 3
Расширение режима : CM (complete main)
Параметр Endianness формата : Big
Идентификатор кодека : A_AC3
Продолжительность : 2 ч. 7 м.
Вид битрейта : Постоянный
Битрейт : 448 Кбит/сек
Каналы : 6 каналов
Расположение каналов : Front: L C R, Side: L R, LFE
Частота : 48,0 КГц
Битовая глубина : 16 бит
Метод сжатия : С потерями
Размер потока : 408 Мбайт (7%)
Заголовок : TRACK_01_DUB_RUS_FilmlinesInt
Язык : Russian
Default : Да
Forced : Да

Аудио #2
Идентификатор : 3
Формат : AC-3
Формат/Информация : Audio Coding 3
Расширение режима : CM (complete main)
Параметр Endianness формата : Big
Идентификатор кодека : A_AC3
Продолжительность : 2 ч. 7 м.
Вид битрейта : Постоянный
Битрейт : 192 Кбит/сек
Каналы : 2 канала
Расположение каналов : Front: L R
Частота : 48,0 КГц
Битовая глубина : 16 бит
Метод сжатия : С потерями
Размер потока : 175 Мбайт (3%)
Заголовок : TRACK_02_DUB_RUS_Nevafilm
Язык : Russian
Default : Нет
Forced : Нет

Аудио #3
Идентификатор : 4
Формат : AC-3
Формат/Информация : Audio Coding 3
Расширение режима : CM (complete main)
Параметр Endianness формата : Big
Идентификатор кодека : A_AC3
Продолжительность : 2 ч. 7 м.
Вид битрейта : Постоянный
Битрейт : 448 Кбит/сек
Каналы : 6 каналов
Расположение каналов : Front: L C R, Side: L R, LFE
Частота : 48,0 КГц
Битовая глубина : 16 бит
Метод сжатия : С потерями
Размер потока : 408 Мбайт (7%)
Заголовок : TRACK_03_MVO_RUS_R5
Язык : Russian
Default : Нет
Forced : Нет

Аудио #4
Идентификатор : 5
Формат : AC-3
Формат/Информация : Audio Coding 3
Расширение режима : CM (complete main)
Параметр Endianness формата : Big
Идентификатор кодека : A_AC3
Продолжительность : 2 ч. 7 м.
Вид битрейта : Постоянный
Битрейт : 448 Кбит/сек
Каналы : 6 каналов
Расположение каналов : Front: L C R, Side: L R, LFE
Частота : 48,0 КГц
Битовая глубина : 16 бит
Метод сжатия : С потерями
Размер потока : 408 Мбайт (7%)
Заголовок : TRACK_04_MVO_RUS_Superbit
Язык : Russian
Default : Нет
Forced : Нет

Аудио #5
Идентификатор : 6
Формат : AC-3
Формат/Информация : Audio Coding 3
Расширение режима : CM (complete main)
Параметр Endianness формата : Big
Идентификатор кодека : A_AC3
Продолжительность : 2 ч. 7 м.
Вид битрейта : Постоянный
Битрейт : 448 Кбит/сек
Каналы : 6 каналов
Расположение каналов : Front: L C R, Side: L R, LFE
Частота : 48,0 КГц
Битовая глубина : 16 бит
Метод сжатия : С потерями
Размер потока : 408 Мбайт (7%)
Заголовок : TRACK_05_AVO_RUS_Gorchakov
Язык : Russian
Default : Нет
Forced : Нет

Аудио #6
Идентификатор : 7
Формат : AC-3
Формат/Информация : Audio Coding 3
Расширение режима : CM (complete main)
Параметр Endianness формата : Big
Идентификатор кодека : A_AC3
Продолжительность : 2 ч. 7 м.
Вид битрейта : Постоянный
Битрейт : 448 Кбит/сек
Каналы : 6 каналов
Расположение каналов : Front: L C R, Side: L R, LFE
Частота : 48,0 КГц
Битовая глубина : 16 бит
Метод сжатия : С потерями
Размер потока : 408 Мбайт (7%)
Заголовок : TRACK_06_AVO_RUS_Mihalev
Язык : Russian
Default : Нет
Forced : Нет

Аудио #7
Идентификатор : 8
Формат : AC-3
Формат/Информация : Audio Coding 3
Расширение режима : CM (complete main)
Параметр Endianness формата : Big
Идентификатор кодека : A_AC3
Продолжительность : 2 ч. 7 м.
Вид битрейта : Постоянный
Битрейт : 448 Кбит/сек
Каналы : 6 каналов
Расположение каналов : Front: L C R, Side: L R, LFE
Частота : 48,0 КГц
Битовая глубина : 16 бит
Метод сжатия : С потерями
Размер потока : 408 Мбайт (7%)
Заголовок : TRACK_07_AVO_RUS_Serbin
Язык : Russian
Default : Нет
Forced : Нет

Аудио #8
Идентификатор : 9
Формат : AC-3
Формат/Информация : Audio Coding 3
Расширение режима : CM (complete main)
Параметр Endianness формата : Big
Идентификатор кодека : A_AC3
Продолжительность : 2 ч. 7 м.
Вид битрейта : Постоянный
Битрейт : 448 Кбит/сек
Каналы : 6 каналов
Расположение каналов : Front: L C R, Side: L R, LFE
Частота : 48,0 КГц
Битовая глубина : 16 бит
Метод сжатия : С потерями
Размер потока : 408 Мбайт (7%)
Заголовок : TRACK_08_AVO_RUS_Volodarskij
Язык : Russian
Default : Нет
Forced : Нет

Аудио #9
Идентификатор : 10
Формат : AC-3
Формат/Информация : Audio Coding 3
Расширение режима : CM (complete main)
Параметр Endianness формата : Big
Идентификатор кодека : A_AC3
Продолжительность : 2 ч. 7 м.
Вид битрейта : Постоянный
Битрейт : 384 Кбит/сек
Каналы : 6 каналов
Расположение каналов : Front: L C R, Side: L R, LFE
Частота : 48,0 КГц
Битовая глубина : 16 бит
Метод сжатия : С потерями
Размер потока : 350 Мбайт (6%)
Заголовок : TRACK_09_MVO_UKR_TTP
Язык : Ukrainian
Default : Нет
Forced : Нет

Аудио #10
Идентификатор : 11
Формат : AC-3
Формат/Информация : Audio Coding 3
Расширение режима : CM (complete main)
Параметр Endianness формата : Big
Идентификатор кодека : A_AC3
Продолжительность : 2 ч. 7 м.
Вид битрейта : Постоянный
Битрейт : 384 Кбит/сек
Каналы : 6 каналов
Расположение каналов : Front: L C R, Side: L R, LFE
Частота : 48,0 КГц
Битовая глубина : 16 бит
Метод сжатия : С потерями
Размер потока : 350 Мбайт (6%)
Заголовок : TRACK_10_MVO_UKR_TRK_Ukraina
Язык : Ukrainian
Default : Нет
Forced : Нет

Аудио #11
Идентификатор : 12
Формат : AC-3
Формат/Информация : Audio Coding 3
Расширение режима : CM (complete main)
Параметр Endianness формата : Big
Идентификатор кодека : A_AC3
Продолжительность : 2 ч. 7 м.
Вид битрейта : Постоянный
Битрейт : 448 Кбит/сек
Каналы : 6 каналов
Расположение каналов : Front: L C R, Side: L R, LFE
Частота : 48,0 КГц
Битовая глубина : 16 бит
Метод сжатия : С потерями
Размер потока : 408 Мбайт (7%)
Заголовок : TRACK_11_ORIGINAL_ENG
Язык : English
Default : Нет
Forced : Нет

Текст #1
Идентификатор : 13
Формат : UTF-8
Идентификатор кодека : S_TEXT/UTF8
Идентификатор кодека/Информация : UTF-8 Plain Text
Заголовок : TEXT_01_SUB_RUS_Superbit_full
Язык : Russian
Default : Нет
Forced : Нет

Текст #2
Идентификатор : 14
Формат : UTF-8
Идентификатор кодека : S_TEXT/UTF8
Идентификатор кодека/Информация : UTF-8 Plain Text
Заголовок : TEXT_02_SUB_RUS_forced
Язык : Russian
Default : Нет
Forced : Нет

Текст #3
Идентификатор : 15
Формат : UTF-8
Идентификатор кодека : S_TEXT/UTF8
Идентификатор кодека/Информация : UTF-8 Plain Text
Заголовок : TEXT_03_SUB_ENG
Язык : English
Default : Нет
Forced : Нет

Меню
00:00:00.000 : en:00:00:00.000
00:05:46.179 : en:00:05:46.179
00:12:29.374 : en:00:12:29.374
00:23:16.186 : en:00:23:16.186
00:35:34.424 : en:00:35:34.424
00:37:46.264 : en:00:37:46.264
00:43:39.242 : en:00:43:39.242
00:48:05.758 : en:00:48:05.758
00:54:36.857 : en:00:54:36.857
01:08:09.877 : en:01:08:09.877
01:12:23.798 : en:01:12:23.798
01:17:46.370 : en:01:17:46.370
01:23:18.994 : en:01:23:18.994
01:35:32.393 : en:01:35:32.393
01:48:20.869 : en:01:48:20.869
01:55:29.631 : en:01:55:29.631

...last pass...

x264.exe: --pass 2 --bitrate 1800 --preset slow --profile high --level 4.1 --ref 9 --deblock -2:-2 --merange 32 --bframes 8 --trellis 2 --no-fast-pskip --no-dct-decimate --psy-rd 1.00:0.15 --partitions all --subme 11 --no-mbtree --keyint 240 --sar 1:1 --stats "D:Bram Stoker's Dracula11111.log" --output "D:Bram Stoker's Dracula11111.mkv" "C:Temp452.avs"

avs [info]: 1024x554p 1:1 @ 24000/1001 fps (cfr)
avs [info]: color matrix: undef
x264 [info]: using SAR=1/1
x264 [info]: using cpu capabilities: MMX2 SSE2Fast SSSE3 SSE4.2 AVX
x264 [info]: profile High, level 4.1
x264 [info]: cabac=1 ref=9 deblock=1:-2:-2 analyse=0x3:0x133 me=umh subme=11 psy=1 fade_compensate=0.00 psy_rd=1.00:0.15 mixed_ref=1 me_range=32 chroma_me=1 trellis=2 8x8dct=1 cqm=0 deadzone=21,11 fast_pskip=0 chroma_qp_offset=-3 threads=6 lookahead_threads=1 sliced_threads=0 nr=0 decimate=0 interlaced=0 bluray_compat=0 constrained_intra=0 fgo=0 bframes=8 b_pyramid=2 b_adapt=2 b_bias=0 direct=3 weightb=1 open_gop=0 weightp=2 keyint=240 keyint_min=23 scenecut=40 intra_refresh=0 rc=2pass mbtree=0 bitrate=1800 ratetol=1.0 qcomp=0.60 qpmin=0:0:0 qpmax=69:69:69 qpstep=4 cplxblur=20.0 qblur=0.5 ip_ratio=1.40 pb_ratio=1.30 aq=1:1.00 aq-sensitivity=10.00 aq-factor=1.00:1.00:1.00 aq2=0 aq3=0
x264 [info]: started at Wed Sep 24 18:25:46 2014

x264 [info]: frame I:1147 Avg QP:14.31 size: 56004
x264 [info]: frame P:38802 Avg QP:17.74 size: 19504
x264 [info]: frame B:143291 Avg QP:19.75 size: 6266
x264 [info]: consecutive B-frames: 1.7% 2.5% 7.1% 17.6% 21.1% 35.8% 7.6% 4.8% 1.9%
x264 [info]: mb I I16..4: 12.3% 74.3% 13.4%
x264 [info]: mb P I16..4: 0.9% 9.5% 0.7% P16..4: 33.6% 34.7% 9.6% 0.9% 0.1% skip:10.1%
x264 [info]: mb B I16..4: 0.0% 0.7% 0.0% B16..8: 34.6% 18.3% 2.3% direct: 4.2% skip:39.8% L0:45.3% L1:46.4% BI: 8.3%
x264 [info]: 8x8 transform intra:83.9% inter:61.3%
x264 [info]: direct mvs spatial:98.7% temporal:1.3%
x264 [info]: coded y,uvDC,uvAC intra: 83.2% 73.2% 51.1% inter: 20.2% 16.5% 7.0%
x264 [info]: i16 v,h,dc,p: 47% 11% 10% 33%
x264 [info]: i8 v,h,dc,ddl,ddr,vr,hd,vl,hu: 8% 6% 10% 10% 14% 14% 13% 12% 14%
x264 [info]: i4 v,h,dc,ddl,ddr,vr,hd,vl,hu: 12% 6% 9% 9% 14% 14% 12% 11% 12%
x264 [info]: i8c dc,h,v,p: 43% 25% 17% 15%
x264 [info]: Weighted P-Frames: Y:16.9% UV:12.0%
x264 [info]: ref P L0: 42.2% 7.2% 20.3% 8.1% 7.0% 4.8% 4.6% 2.4% 2.6% 0.6% 0.1%
x264 [info]: ref B L0: 70.6% 13.5% 6.2% 3.5% 2.5% 2.2% 1.1% 0.5%
x264 [info]: ref B L1: 92.8% 7.2%
x264 [info]: kb/s:1799.29

x264 [total]: encoded 183240 frames, 9.338 fps, 1799.29 kb/s, 1639.3 MB
• За помощь в подготовке релиза спасибо Painter и neni.
• За постер спасибо anestol от Media-Art-Club.
• За дубляж от Nevafilm, а так же за дороги с профессиональными многоголосыми и авторскими переводами спасибо BenderBEST.
• За украинские дорожки спасибо трекеру Hurtom.
Релиз от: | Автор рипа:



Скачать Дракула.Брэма.Стокера.Bram.Stoker's.Dracula.(Френсис.Форд.Коппола).[1992.ужасы.триллер.фэнтези.мелодрама.драма.экранизация.BDRip-AVC].[Dub]x2+[MVO]x4+[AVO]x4+[Оригинал]+[Sub]x2.torrent без регистрации
Золото ЗОЛОТАЯ РАЗДАЧА! СКАЧАННОЕ НЕ ЗАСЧИТЫВАЕТСЯ! Золото
Дата: Зарегистрирован   [ Тип: внутренний ] Как тут cкачать?
MAGNET ссылка
MAGNET ссылка


Скачать .torrent

15 KB

Статус: проверено DHT
Скачан: торрент - 129 раз, раздача полностью - 127 раз
Размер: 5,64 GB
Оценка:  - (Голосов: 0)
Поблагодарили: 2
Поделиться ссылкой на эту раздачу с друзьями:
В контактеFacebookОдноклассникиTwitterLivejournalМой МирLiveinternet
 

 
Показать сообщения:    


Вы не можете начинать темы
Вы не можете отвечать на сообщения
Вы не можете редактировать свои сообщения
Вы не можете удалять свои сообщения
Вы не можете голосовать в опросах
Вы не можете прикреплять файлы к сообщениям
Вы можете скачивать файлы