Loading...
Error

Скачать Сонная лощина / Sleepy Hollow (Сезон 1-2, Серия 1-29 из 29) ( Лен Уайзман) [2013-2015, Фантастика,фэнтези, триллер, WEBDLRip-AVC][1080р] [MVO] [LostFilm] торрент без регистрации

 
Статистика раздачи
Размер:  71,21 GB   |    Скачан:  15687 раз
Сидов:  1  [  0 KB/s  ]  
 
Автор Сообщение

Nikolai.Baranov

[] 






Сонная лощина / Sleepy Hollow Сезон 1-2, Сезон 1-2, Серия 1-29 из 29




Год выпуска: 2013-2015
Выпущено: США , 20th Century Fox Television, Kurtzman Orci Paper Products
Жанр: Фантастика,фэнтези, триллер
Продолжительность: 00:47:00
Сезон: 1-2
Серия: 1-29
Количество серий в сезоне: 29
Озвучка:Профессиональная многоголосая закадровая(LostFilm_TV)
Субтитры: НЕТ

Сайт сериала:



Режиссер: Лен Уайзман

В ролях: Том Мисон, Николь Бехари, Орландо Джонс, Катя Винтер, Меми Уэст, Кристофер МакКоннелл, Клэнси Браун, Ричард Цетрон, Джон Чо, Кристофер Козорт


Легенда о Сонной лощине

Отлично, просто отлично, аплодирую стоя! Вот таким должен быть сериал — затягивающим так, что хочется осилить весь первый сезон одним махом, но, вот печалька, пока существуют только две серии…

«Сонная Лощина» очаровывает сразу, с первых кадров, где Икабод Крэйн рубит голову будущему вселенскому злу. И более не отпускает.

И не важно, что от книги практически ничего не осталось — только имя главного героя и сам безголовый персонаж. И не важно, что этот сериал совершенно не похож на бертоновскую «Лощину», которая, кстати, тоже не особо похожа на книгу. Таких целей явно не ставили перед собой создатели, и слава богу, надо сказать. Бертоновский фильм люблю, но слабо представляю, как это можно было бы развить до сериала — слишком уж серьезно.

А эта «Сонная Лощина» радует своей… непосредственностью, что ли. Всадники Апокалипсиса? Какой бред! Ведьмовские ковены? Да что тут творится вообще? Сам сатана разгуливает по городу со своими огромными рогами, почти как в «Лабиринте Фавна». Икабод Крэйн и его помощница — единственные, кто может помочь нашему многострадальному миру. Кааакой бред, но как же это все интересно, иронично и со вкусом преподнесено!

И актеры в главных ролях вроде ничего. Во всяком случае, Том Мисон поймал нужный образ и смотрится очень хорошо этаким джентльменом.

Очень хорошо смотрятся шуточки по поводу налогов и современного прогресса, но все строго выверено, чтобв не «переперчить» — все же не комедия ведь.

В итоге перед нами крайне интересный мистический сериал, который при серьезности «миссии» главных героев ничуть не пафосен, местами забавен, а главное — ну очень увлекателен! С нетерпением жду новых серий.





Качество : WEB-DLRip-AVC 1080p
Формат: MPEG-4
Видео кодек: H264
Видео: 7225Кбит/сек,1920х1080(16.9),в 25.000кадр/сек,AVC(Baseline@L4.0)(1Ref Frames)
Аудио кодек: AAC
Аудио Russian:288Кбит/сек,48.0КГц,2канала,AAC(LC)





Звуковая дорожка сделана путем наложения чистого голоса озвучивателей на центральный канал оригинальной дорожки. Качество идентично звуковой дорожке.



Сезон 1

01. Пилот / Pilot
02. Кровавая луна / Blood Moon
03. Чтобы зло восторжествовало... / For the Triumph of Evil...
04. Малый ключ Соломона / The Lesser Key of Solomon
05. Джон Доу / John Doe
06. Пожиратель Грехов / The Sin Eater
07. The Midnight Ride / Полуночная скачка
08. Necromancer / Некромант
09. Sanctuary / Убежище
10. The Golem / Голем
11. The Vessel / Сосуд


Сезон 2

01. This Is War / Это война
02. The Kindred / Сородич
03. Root of All Evil / Корень всех зол
04. Go Where I Send Thee... / Иди, куда я повелел
05. The Weeping Lady / Плачущая леди
06 Бездна начнет всматриваться в тебя / And the Abyss Gazes Back
07 Избавление / Deliverance
08 Бессердечная / Heartless
09 Мама / Mama
10 Шедевр / Magnum Opus
11 Акеда / The Akeda
12 Потерянный рай / Paradise Lost
13 Порочащий портрет (Pittura Infamante)
14 Кали Юга (Kali Yuga)
15 Колдун (Spellcaster)
16 Что скрывает ложь (What Lies Beneath)
17 Пробуждение (Awakening)
18 Время летит (Tempus Fugit)



General
Полное имя : D:\У Ж А С Ы\Сонная Лощина\SLEEPY_HOLLOW_2013_-_2014_S01_-_S02_RUS[LostFilm_TV]_x264_Nikolai.Baranov_WEB-DLRip-AVC_(1080p)\S01\SLEEPY_HOLLOW_2013_S01E01_RUS[LostFilm_TV]_x264_Nikolai.Baranov_WEB-DLRip-AVC_(1080p).mp4
Формат : MPEG-4
Профиль формата : Base Media
Идентификатор кодека : isom
Размер файла : 2.37 GiB
Продолжительность : 45mn 5s
Режим общего битрейта : Variable
Общий поток : 7 521 Kbps
Название фильма : The Strain 1x11 The Third Rail @ AlexFilm
Дата кодирования : UTC 2014-09-26 16:43:39
Дата пометки : UTC 2014-09-26 16:43:39
Программа кодирования : Lavf51.12.1

Video
Идентификатор : 1
Формат : AVC
Формат/Информация : Advanced Video Codec
Профиль формата : Baseline@L4.0
Параметр CABAC формата : No
Параметр ReFrames формата : 1 frame
Параметр GOP формата : M=1, N=12
Идентификатор кодека : avc1
Идентификатор кодека/Информация : Advanced Video Coding
Продолжительность : 45mn 5s
Вид битрейта : Variable
Битрейт : 7 225 Kbps
Максимальный битрейт : 10.5 Mbps
Ширина : 1 920 pixels
Высота : 1 080 pixels
Соотношение сторон : 16:9
Режим частоты кадров : Constant
Частота кадров : 25.000 fps
Частота кадров в оригинале : 24.000 fps
Цветовое пространство : YUV
Субдискретизация насыщенности : 4:2:0
Битовая глубина : 8 bits
Тип развёртки : Progressive
Бит/(Пиксели*Кадры) : 0.139
Размер потока : 2.28 GiB (96%)
Дата кодирования : UTC 2014-09-26 16:43:39
Дата пометки : UTC 2014-09-26 16:43:39

Audio
Идентификатор : 2
Формат : AAC
Формат/Информация : Advanced Audio Codec
Профиль формата : LC
Идентификатор кодека : 40
Продолжительность : 45mn 5s
Вид битрейта : Variable
Битрейт : 288 Kbps
Каналы : 2 channels
Channel(s)_Original : 6 channels
Расположение каналов : Front: L C R, Side: L R, LFE
Частота : 48.0 KHz
Метод сжатия : Lossy
Размер потока : 94.0 MiB (4%)
Дата кодирования : UTC 2014-09-26 16:43:39
Дата пометки : UTC 2014-09-26 16:43:39



General
Полное имя : D:\У Ж А С Ы\Сонная Лощина\SLEEPY_HOLLOW_2013_-_2014_S01_-_S02_RUS[LostFilm_TV]_x264_Nikolai.Baranov_WEB-DLRip-AVC_(1080p)\S02\SLEEPY_HOLLOW_2014_S02E01_RUS[LostFilm_TV]_x264_Nikolai.Baranov_WEB-DLRip-AVC_(1080p).mp4
Формат : MPEG-4
Профиль формата : Base Media
Идентификатор кодека : isom
Размер файла : 2.33 GiB
Продолжительность : 44mn 11s
Режим общего битрейта : Variable
Общий поток : 7 537 Kbps
Название фильма : The Strain 1x11 The Third Rail @ AlexFilm
Дата кодирования : UTC 2014-09-27 10:33:56
Дата пометки : UTC 2014-09-27 10:33:56
Программа кодирования : Lavf51.12.1

Video
Идентификатор : 1
Формат : AVC
Формат/Информация : Advanced Video Codec
Профиль формата : Baseline@L4.0
Параметр CABAC формата : No
Параметр ReFrames формата : 1 frame
Параметр GOP формата : M=1, N=12
Идентификатор кодека : avc1
Идентификатор кодека/Информация : Advanced Video Coding
Продолжительность : 44mn 11s
Вид битрейта : Variable
Битрейт : 7 242 Kbps
Максимальный битрейт : 10.5 Mbps
Ширина : 1 920 pixels
Высота : 1 080 pixels
Соотношение сторон : 16:9
Режим частоты кадров : Constant
Частота кадров : 25.000 fps
Частота кадров в оригинале : 24.000 fps
Цветовое пространство : YUV
Субдискретизация насыщенности : 4:2:0
Битовая глубина : 8 bits
Тип развёртки : Progressive
Бит/(Пиксели*Кадры) : 0.140
Размер потока : 2.24 GiB (96%)
Дата кодирования : UTC 2014-09-27 10:33:56
Дата пометки : UTC 2014-09-27 10:33:56

Audio
Идентификатор : 2
Формат : AAC
Формат/Информация : Advanced Audio Codec
Профиль формата : LC
Идентификатор кодека : 40
Продолжительность : 44mn 11s
Вид битрейта : Variable
Битрейт : 288 Kbps
Каналы : 2 channels
Channel(s)_Original : 6 channels
Расположение каналов : Front: L C R, Side: L R, LFE
Частота : 48.0 KHz
Метод сжатия : Lossy
Размер потока : 91.8 MiB (4%)
Дата кодирования : UTC 2014-09-27 10:33:56
Дата пометки : UTC 2014-09-27 10:33:56






1сезон

2сезон


1. Открыть торрент
2. Снять галки с тех файлов торрента, которые мы не хотим закачивать. Оставляем только на нужных нам файлах (файле).
3. Нажать О.К.

В клиенте utorrent

Инструкция

1) Открыть торрент


2) Снять галки с тех файлов торрента, которые мы не хотим закачивать:

* либо вручную, снимая с каждого файла галку( скрин №1)
* либо, нажав кнопку "Снять метки (Select None)", сняв сразу со всех файлов(скрин №2)
№1

№2

Оставляем только на нужных нам файлах (файле).

3)Нажать О.К






Внимание!!! 26.02. 2015. РАЗДАЧА ОБНОВЛЕНА .ФИНАЛ СЕЗОНА.ОБНОВИТЕ ТОРЕНТ ФАЙЛ.ПРИЯТНОГО ПРОСМОТРА .

Релиз от: Nikolai.Baranov










Скачать Сонная.лощина.Sleepy.Hollow.(Сезон.1-2.Серия.1-29.из.29).(.Лен.Уайзман).[2013-2015.Фантастика.фэнтези.триллер.WEBDLRip-AVC][1080р].[MVO].[LostFilm].torrent без регистрации
Золото ЗОЛОТАЯ РАЗДАЧА! СКАЧАННОЕ НЕ ЗАСЧИТЫВАЕТСЯ! Золото
Дата: Зарегистрирован   [ Тип: внутренний ] Как тут cкачать?
MAGNET ссылка
MAGNET ссылка


Скачать .torrent

186 KB

Статус: проверено DHT
Скачан: торрент - 15687 раз, раздача полностью - 0 раз
Размер: 71,21 GB
Оценка:  1 (Голосов: 1)
Поблагодарили: 0
Поделиться ссылкой на эту раздачу с друзьями:
В контактеFacebookОдноклассникиTwitterLivejournalМой МирLiveinternet
 

 

Shara

[] 

Ужасные рипы в этой раздаче...

Раз в несколько минут картинка сыплется и происходит перескакивание вперед, причем во всех плеерах, смотреть практически невозможно...

Кроме того, при попытке просмотреть на PS3 в плеере Showtime, все серии называются какими-то странными именами, половина The Strain 01x01 by AlexFilm, вторая половина тоже каким-то левым словом... Ну и сам плеер вылетает при попытке посмотреть файлы из раздачи, смотреть тоже невозможно...

В общем - ОЧЕНЬ плохая раздача, не ожидал...
 
Показать сообщения:    


Вы не можете начинать темы
Вы не можете отвечать на сообщения
Вы не можете редактировать свои сообщения
Вы не можете удалять свои сообщения
Вы не можете голосовать в опросах
Вы не можете прикреплять файлы к сообщениям
Вы можете скачивать файлы