Loading...
Error

Скачать Касл / Castle (сезон 07) [2014, драма, комедия, криминал, детектив, WEB-DL] [720p] [MVO LostFilm]+[Eng]+[Sub Eng] торрент без регистрации

 
Статистика раздачи
Размер:  33,14 GB   |    Скачан:  3545 раз
Сидов:  1  [  0 KB/s  ]  
 
Автор Сообщение

МихаНЕзатор

[] 

Информация о фильме
Название: Касл
Оригинальное название: Castle
Год выхода: 2014
Жанр: драма, комедия, криминал, детектив
Режиссер: Роб Боумен, Джон Терлески, Брайан Спайсер


В ролях: Натан Филлион, Стана Катик, Сьюзэн Салливан, Молли С. Куинн, Джон Уэртас, Тамала Джонс, Шимус Девер, Рубен Сантьяго-Хадсон, Пенни Джонсон, Ари Гросс



О фильме: Знаменитый нью-йоркский писатель Ричард "Рики" Касл получает личное разрешение от мэра города участвовать в расследованиях убойного отдела, чтобы черпать вдохновение для своих книг из работы детективов и реальной полицейской хроники.
Касл пытается доказать надменному детективу Кейт Беккет, что в расследовании убийств его блестящий ум и умение думать как преступник, еще более полезны, чем его связи с влиятельными людьми и общественное признание.
Вскоре он становится неотъемлемой частью жизни убойного отдела. А дома Касла ждет любимая дочь Алексис и мать - светская львица, Марта.

Релиз от:

by vlaluk

Страна: США
Продолжительность: ~ 00:43:00
Перевод: Профессиональный (многоголосый закадровый) LostFilm

Файл
Кодек: x264
Качество: WEB-DL 720p
Видео: 1280x720 at 23.976 fps, MPEG-4 AVC, ~4000 kbps avg
Звук:
Аудио 1: Russian: 48 kHz, AC3, 3/2 (L,C,R,l,r) + LFE ch, ~384.00 kbps avg |Многоголосый закадровый, LostFilm|
Аудио 2: English: 48 kHz, AC3, 3/2 (L,C,R,l,r) + LFE ch, ~384.00 kbps avg
Субтитры: английские

АНОНСЫ ПОПУЛЯРНЫХ РАЗДАЧ


Nоррент обновлён, добавлена 23-я серия!
Общее
Уникальный идентификатор : 214182016693243430027749364154350630721 (0xA121F4B9218FE63F808FA798D6C6F741)
Полное имя : Castle.S07.720p.WEB-DL.Rus.Eng.HDCLUBCastle.S07E01.720p.WEB-DL.Rus.Eng.HDCLUB.mkv
Формат : Matroska
Версия формата : Version 4 / Version 2
Размер файла : 1,47 Гбайт
Продолжительность : 42 м.
Общий поток : 4961 Кбит/сек
Название фильма : Castle [Season 7] (2014) - Release for HDCLUB by vlaluk
Дата кодирования : UTC 2014-10-03 17:59:39
Программа кодирования : mkvmerge v7.2.0 ('On Every Street') 32bit built on Sep 13 2014 15:42:11
Библиотека кодирования : libebml v1.3.0 + libmatroska v1.4.1

Видео
Идентификатор : 1
Формат : AVC
Формат/Информация : Advanced Video Codec
Профиль формата : High@L3.1
Параметр CABAC формата : Нет
Параметр ReFrames формата : 2 кадра
Идентификатор кодека : V_MPEG4/ISO/AVC
Продолжительность : 42 м.
Битрейт : 4094 Кбит/сек
Ширина : 1280 пикселей
Высота : 720 пикселей
Соотношение сторон : 16:9
Режим частоты кадров : Постоянный
Частота кадров : 23,976 кадра/сек
Цветовое пространство : YUV
Субдискретизация насыщенности : 4:2:0
Битовая глубина : 8 бит
Тип развёртки : Прогрессивная
Бит/(Пиксели*Кадры) : 0.185
Размер потока : 1,21 Гбайт (83%)
Заголовок : Season 7, Episode 01: Driven / Загнанный - Release for HDCLUB by vlaluk
Язык : English
Default : Да
Forced : Нет
Основные цвета : BT.709
Характеристики трансфера : BT.709
Коэффициенты матрицы : BT.709

Аудио #1
Идентификатор : 2
Формат : AC-3
Формат/Информация : Audio Coding 3
Расширение режима : CM (complete main)
Параметр Endianness формата : Big
Идентификатор кодека : A_AC3
Продолжительность : 42 м.
Вид битрейта : Постоянный
Битрейт : 384 Кбит/сек
Каналы : 6 каналов
Расположение каналов : Front: L C R, Side: L R, LFE
Частота : 48,0 КГц
Битовая глубина : 16 бит
Метод сжатия : С потерями
Размер потока : 116 Мбайт (8%)
Заголовок : DD 5.1 @ 384 kbps @ LostFilm
Язык : Russian
Default : Да
Forced : Нет

Аудио #2
Идентификатор : 3
Формат : AC-3
Формат/Информация : Audio Coding 3
Расширение режима : CM (complete main)
Параметр Endianness формата : Big
Идентификатор кодека : A_AC3
Продолжительность : 42 м.
Вид битрейта : Постоянный
Битрейт : 384 Кбит/сек
Каналы : 6 каналов
Расположение каналов : Front: L C R, Side: L R, LFE
Частота : 48,0 КГц
Битовая глубина : 16 бит
Метод сжатия : С потерями
Размер потока : 116 Мбайт (8%)
Заголовок : DD 5.1 @ 384 kbps
Язык : English
Default : Нет
Forced : Нет

Текст
Идентификатор : 4
Формат : UTF-8
Идентификатор кодека : S_TEXT/UTF8
Идентификатор кодека/Информация : UTF-8 Plain Text
Заголовок : English @ SRT
Язык : English
Default : Нет
Forced : Нет
Дорожка №1 получена наложением выделенного голоса на центр декодированного AC3.



Скачать Касл.Castle.(сезон.07).[2014.драма.комедия.криминал.детектив.WEB-DL].[720p].[MVO.LostFilm]+[Eng]+[Sub.Eng].torrent без регистрации
Золото ЗОЛОТАЯ РАЗДАЧА! СКАЧАННОЕ НЕ ЗАСЧИТЫВАЕТСЯ! Золото
Дата: Зарегистрирован   [ Тип: внутренний ] Как тут cкачать?
MAGNET ссылка
MAGNET ссылка


Скачать .torrent

44 KB

Статус: проверено DHT
Скачан: торрент - 3545 раз, раздача полностью - 36 раз
Размер: 33,14 GB
Оценка:  - (Голосов: 0)
Поблагодарили: 4
Поделиться ссылкой на эту раздачу с друзьями:
В контактеFacebookОдноклассникиTwitterLivejournalМой МирLiveinternet
 

 
Показать сообщения:    


Вы не можете начинать темы
Вы не можете отвечать на сообщения
Вы не можете редактировать свои сообщения
Вы не можете удалять свои сообщения
Вы не можете голосовать в опросах
Вы не можете прикреплять файлы к сообщениям
Вы можете скачивать файлы