Loading...
Error

Скачать Детские игры 2 / Child’s Play 2 (Джон Лафия) [1990, ужасы, триллер, BDRip] [VO]+[AVO]+[Sub] торрент без регистрации

 
Статистика раздачи
Размер:  1,46 GB   |    Скачан:  5375 раз
Сидов:  1  [  0 KB/s  ]  
 
Автор Сообщение

Marsianka

[] 

Название: Детские игры 2
Оригинальное название: Child’s Play 2
Год выпуска: 1990
Жанр: ужасы, триллер
Выпущено: США, Universal Pictures
Режиссер: Джон Лафия
В ролях: Алекс Винсент, Дженни Агаттер, Геррит Грэм, Кристин Элиз, Грейс Забриски, Брэд Дуриф

О фильме: Энди — мальчик, в которого Чаки пытался вселиться в первой серии — попадает к приёмным родителям (родная мать мальчика была признана душевнобольной). Ему до сих пор снятся кошмары о Чаки. Между тем, фирма-производитель рыжих игрушечных пупсов, дабы избежать дурной репутации (в силу событий, произошедших в фильме-оригинале), восстанавливает куклу Чаки из её «останков», найденных на «месте происшествия». Так фирма пытается доказать, что реальной опасности кукла не имеет. Но получилось наоборот… Теперь Энди вновь предстоит столкнуться с маленьким, но очень опасным, пластмассовым монстром, который все ещё намерен овладеть телом мальчика…

Качество: BDRip
Видео: XviD, 1900 Кбит/с, 720x384
Аудио: Русский, английский (AC3, 2 ch, 192 Кбит/с)
Размер: 1.46 ГБ
Продолжительность: 01:23:50
Перевод: Профессиональный одноголосый (Tycoon), авторский (Василий Горчаков)
Субтитры: Русские

Сравнение с исходником

Алексей Креативный

Фильм фильмов

Можно сказать, что это самый страшный и, в тоже время, очень интересный фильм ужасов с элементом мистики.
Ужасы, связанные с ритуалами гаитянской магии Вуду, нечасто можно увидеть в фильмах. Посмотрел его, когда мне было 13 лет, он мне очень понравился. Даже сейчас спецэффекты в этом фильме ужасов смотрятся намного реалистичней компьютерной графики нынешних фильмов ужасов, а сюжетная линия, вообще, очень продумана и интересна, что позволяет ей продолжить фильм.

Я ставлю этому фильму в жанре ужаса

10 из 10

Кинопоиск
Общее
Полное имя : E:VideoDetskie.igry.2.1990.XviD.BDRipDetskie.igry.2.1990.Original.eng.ac3
Формат : AC-3
Формат/Информация : Audio Coding 3
Размер файла : 115 Мбайт
Продолжительность : 1 ч. 23 м.
Режим общего битрейта : Постоянный
Общий поток : 192 Кбит/сек

Аудио
Формат : AC-3
Формат/Информация : Audio Coding 3
Расширение режима : CM (complete main)
Параметр Endianness формата : Big
Продолжительность : 1 ч. 23 м.
Вид битрейта : Постоянный
Битрейт : 192 Кбит/сек
Каналы : 2 канала
Расположение каналов : Front: L R
Частота : 48,0 КГц
Битовая глубина : 16 бит
Метод сжатия : С потерями
Размер потока : 115 Мбайт (100%)

Общее
Полное имя : E:VideoDetskie.igry.2.1990.XviD.BDRipDetskie.igry.2.1990.rus.srt
Размер файла : 83,2 Кбайт

Общее
Полное имя : E:VideoDetskie.igry.2.1990.XviD.BDRipDetskie.igry.2.1990.XviD.BDRip.avi
Формат : AVI
Формат/Информация : Audio Video Interleave
Размер файла : 1,35 Гбайт
Продолжительность : 1 ч. 23 м.
Общий поток : 2298 Кбит/сек
Программа кодирования : VirtualDubMod 1.5.10.2 (build 2540/release)
Библиотека кодирования : VirtualDubMod build 2540/release

Видео
Идентификатор : 0
Формат : MPEG-4 Visual
Профиль формата : Advanced Simple@L5
Параметр BVOP формата : 1
Параметр QPel формата : Нет
Параметр GMC формата : Без точки перехода
Параметр матрицы формата : Default (H.263)
Режим смешивания : Сжатый битовый поток
Идентификатор кодека : XVID
Идентификатор кодека/Подсказка : XviD
Продолжительность : 1 ч. 23 м.
Битрейт : 1900 Кбит/сек
Ширина : 720 пикселей
Высота : 384 пикселя
Соотношение сторон : 1,85:1
Частота кадров : 23,976 кадра/сек
Цветовое пространство : YUV
Субдискретизация насыщенности : 4:2:0
Битовая глубина : 8 бит
Тип развёртки : Прогрессивная
Метод сжатия : С потерями
Бит/(Пиксели*Кадры) : 0.287
Размер потока : 1,11 Гбайт (83%)
Библиотека кодирования : XviD 1.2.1 (UTC 2008-12-04)

Аудио #1
Идентификатор : 1
Формат : AC-3
Формат/Информация : Audio Coding 3
Расширение режима : CM (complete main)
Параметр Endianness формата : Big
Идентификатор кодека : 2000
Продолжительность : 1 ч. 23 м.
Вид битрейта : Постоянный
Битрейт : 192 Кбит/сек
Каналы : 2 канала
Расположение каналов : Front: L R
Частота : 48,0 КГц
Битовая глубина : 16 бит
Метод сжатия : С потерями
Размер потока : 115 Мбайт (8%)
Выравнивание : Разделение по промежуткам
Продолжительность промежутка : 42 мс. (1,00 видеокадр)
Время предзагрузки промежутка : 500 мс.

Аудио #2
Идентификатор : 2
Формат : AC-3
Формат/Информация : Audio Coding 3
Расширение режима : CM (complete main)
Параметр Endianness формата : Big
Идентификатор кодека : 2000
Продолжительность : 1 ч. 23 м.
Вид битрейта : Постоянный
Битрейт : 192 Кбит/сек
Каналы : 2 канала
Расположение каналов : Front: L R
Частота : 48,0 КГц
Битовая глубина : 16 бит
Метод сжатия : С потерями
Размер потока : 115 Мбайт (8%)
Выравнивание : Разделение по промежуткам
Продолжительность промежутка : 42 мс. (1,00 видеокадр)
Время предзагрузки промежутка : 500 мс.



Скачать Детские.игры.2.Child’s.Play.2.(Джон.Лафия).[1990.ужасы.триллер.BDRip].[VO]+[AVO]+[Sub].torrent без регистрации
Золото ЗОЛОТАЯ РАЗДАЧА! СКАЧАННОЕ НЕ ЗАСЧИТЫВАЕТСЯ! Золото
Дата: Зарегистрирован   [ Тип: внутренний ] Как тут cкачать?
MAGNET ссылка
MAGNET ссылка


Скачать .torrent

15 KB

Статус: проверено DHT
Скачан: торрент - 5375 раз, раздача полностью - 11 раз
Размер: 1,46 GB
Оценка:  - (Голосов: 0)
Поблагодарили: 1
Поделиться ссылкой на эту раздачу с друзьями:
В контактеFacebookОдноклассникиTwitterLivejournalМой МирLiveinternet
 

 
Показать сообщения:    


Вы не можете начинать темы
Вы не можете отвечать на сообщения
Вы не можете редактировать свои сообщения
Вы не можете удалять свои сообщения
Вы не можете голосовать в опросах
Вы не можете прикреплять файлы к сообщениям
Вы можете скачивать файлы