Loading...
Error

Скачать Бывает и хуже / The Middle (сезон 02) (Джули Энн Робинсон) [2010, комедия, HDTVRip] [MVO (NewStudio)]+[Eng] торрент без регистрации

 
Статистика раздачи
Размер:  4,68 GB   |    Скачан:  140 раз
Сидов:  1  [  0 KB/s  ]  
 
Автор Сообщение

МихаНЕзатор

[] 

Бывает и хуже / The Middle
Сезон 02 (1-24 из 24)


Год выпуска: 2010
Страна: США
Жанр: Комедия
Продолжительность: 00:21:00
Перевод: Профессиональный (двухголосый, закадровый)
Русские субтитры: нет
Режиссёр: Джули Энн Робинсон

В ролях: Патриция Хитон, Нил Флинн, Чарли МакДермотт, Иден Шер, Аттикус Шаффер, Патриция Белчер

Описание: Семья среднего достатка, Хэки, живет в самом сердце Индианы и старается изо всех сил держаться на плаву в пучине сумасшедших будней. Этот сериал о несбыточных ожиданиях и безумных идеях, о повседневных неудачах и крохотных радостях жены и матери троих необычных детишек.

Релиз группы:

Качество: HDTVRip
Формат: AVI
Видео кодек: XviD
Аудио кодек: MP3
Видео: 624x352 (1.77:1), 23.976 fps, XviD, ~1061 kbps avg, 0.202 bit/pixel
Аудио: Русский: MPEG Audio Layer 3 48000Hz stereo 128 Kbps
Аудио 2: Английский: MPEG Audio Layer 3 48000Hz stereo 128 Kbps

Озвучка: Audioclip.ru
Перевод: Yame
Работа со звуком: koss, Cherry
Постер: 5H1
General
Complete name : C:\Downloads\uTorrent\the.middle.s02.hdtv_NewStudio.TV\the.middle.s02e01.hdtv_NewStudio.TV.avi
Format : AVI
Format/Info : Audio Video Interleave
File size : 200 MiB
Duration : 21mn 0s
Overall bit rate : 1 329 Kbps
Writing application : VirtualDubMod 1.5.10.2 (build 2540/release)
Writing library : VirtualDubMod build 2540/release
Video
ID : 0
Format : MPEG-4 Visual
Format profile : Advanced Simple@L5
Format settings, BVOP : Yes
Format settings, QPel : No
Format settings, GMC : No warppoints
Format settings, Matrix : Default (MPEG)
Muxing mode : Packed bitstream
Codec ID : XVID
Codec ID/Hint : XviD
Duration : 21mn 0s
Bit rate : 1 063 Kbps
Width : 624 pixels
Height : 352 pixels
Display aspect ratio : 16:9
Frame rate : 23.976 fps
Resolution : 8 bits
Colorimetry : 4:2:0
Scan type : Progressive
Bits/(Pixel*Frame) : 0.202
Stream size : 160 MiB (80%)
Writing library : XviD 1.2.1 (UTC 2008-12-04)
Audio #1
ID : 1
Format : MPEG Audio
Format version : Version 1
Format profile : Layer 3
Mode : Joint stereo
Format_Settings_ModeExtension : MS Stereo
Codec ID : 55
Codec ID/Hint : MP3
Duration : 21mn 0s
Bit rate mode : Constant
Bit rate : 128 Kbps
Channel(s) : 2 channels
Sampling rate : 48.0 KHz
Stream size : 19.2 MiB (10%)
Alignment : Aligned on interleaves
Interleave, duration : 42 ms (1.00 video frame)
Interleave, preload duration : 504 ms
Audio #2
ID : 2
Format : MPEG Audio
Format version : Version 1
Format profile : Layer 3
Mode : Joint stereo
Format_Settings_ModeExtension : MS Stereo
Codec ID : 55
Codec ID/Hint : MP3
Duration : 21mn 0s
Bit rate mode : Variable
Bit rate : 121 Kbps
Nominal bit rate : 128 Kbps
Channel(s) : 2 channels
Sampling rate : 48.0 KHz
Stream size : 18.2 MiB (9%)
Alignment : Aligned on interleaves
Interleave, duration : 24 ms (0.58 video frame)
Interleave, preload duration : 581 ms
Writing library : LAME3.90.
Encoding settings : -m j -V 4 -q 2 -lowpass 17.6 --abr 128
Даты выхода серий в США
12 – 12.01.2011 The Big Chill
11 – 05.01.2011 Taking Back the House
10 – 08.12.2010 A Simple Christmas (Простое Рождество)
09 – 24.11.2010 Thanksgiving II (День Благодарения II)
08 – 17.11.2010 Errand Boy (Мальчик на побегушках)
07 – 03.11.2010 A Birthday Story (История рождения)
06 – 27.10.2010 Halloween (Хэллоуин)
05 – 20.10.2010 Foreign Exchange (Ученик по обмену)
04 – 13.10.2010 The Quarry (Карьер)
03 – 06.10.2010 The Diaper Incident (Инцидент с подгузниками)
02 – 29.09.2010 Homecoming (Праздничная игра)
01 – 22.09.2010 Back to School (Снова в школу)
Внимание! Раздача ведётся путём добавления новых серий; при каждом добавлении создётся новый торрент. Чтобы начать докачку новой серии, пользователям необходимо сделать следующее:
(1) остановить скачивание,
(2) удалить старый торрент-файл у себя из клиента (старые серии удалять не надо),
(3) скачать новый торрент-файл из раздачи и запустить его у себя в клиенте вместо старого, при этом указать клиенту путь в старую папку куда и должно происходить скачивание новых серий.
Ваш клиент при этом должен произвести хеширование (проверку) старой папки (если не производит сам - помогите ему сделать это), и будет докачивать только те серии которых у вас ещё нет. Старые серии при этом не удаляются, а продолжают раздаваться!
Eсли вы уже посмотрели и удалили старые серии, то предотвратить повторную закачку старых серий можно, сняв галочки в соответсвующих местах при запуске нового торрента. По возможности, желательно не удалять старые серии как можно дольше чтобы релизёр не столько продолжал раздавать старые серии, а смог сконцентрироваться на новых.



Скачать Бывает.и.хуже.The.Middle.(сезон.02).(Джули.Энн.Робинсон).[2010.комедия.HDTVRip].[MVO.(NewStudio)]+[Eng].torrent без регистрации
Золото ЗОЛОТАЯ РАЗДАЧА! СКАЧАННОЕ НЕ ЗАСЧИТЫВАЕТСЯ! Золото
Дата: Зарегистрирован   [ Тип: внутренний ] Как тут cкачать?
MAGNET ссылка
MAGNET ссылка


Скачать .torrent

14 KB

Статус: проверено DHT
Скачан: торрент - 140 раз, раздача полностью - 49 раз
Размер: 4,68 GB
Оценка:  - (Голосов: 0)
Поблагодарили: 2
Поделиться ссылкой на эту раздачу с друзьями:
В контактеFacebookОдноклассникиTwitterLivejournalМой МирLiveinternet
 

 
Показать сообщения:    


Вы не можете начинать темы
Вы не можете отвечать на сообщения
Вы не можете редактировать свои сообщения
Вы не можете удалять свои сообщения
Вы не можете голосовать в опросах
Вы не можете прикреплять файлы к сообщениям
Вы можете скачивать файлы