Loading...
Error

Скачать Карнавал / Carnivale (1х01-12 из 12) (Родриго Гарсия) [2003, Фэнтези, триллер, драма, детектив, мистика, WEB-DLRip] MVO (НТВ) + Original торрент без регистрации

 
Статистика раздачи
Размер:  5,9 GB   |    Скачан:  235 раз
Сидов:  1  [  0 KB/s  ]  
 
Автор Сообщение

МихаНЕзатор

[] 

Карнавал / Carnivale


Год выпуска: 2003
Страна: США
Жанр: Фэнтези, триллер, драма, детектив, мистика
Продолжительность: 00:57:00
Перевод: Профессиональный (многоголосый закадровый) / НТВ
Русские субтитры: нет
Режиссёр: Родриго Гарсия

В ролях: Майкл Дж. Андерсон, Эдриенн Барбо, Клэнси Браун, Дебра Кристофферсон, Тим ДиКей, Клеа ДюВалл, Синтия Эттинджер, Карла Галло, Тоби Хасс, Эми Мэдиган

Описание: Америка, 1934 год, Средний Запад. 18-летний беглец Бен Хокинс находит приют в странствующем цирке «Карнавал», в котором есть: цыганка Софи, читающая карты Таро, ее парализованная мать, владеющая телекинезом, слепой профессор Лодз, читающий чужие мысли, бородатая женщина Лайла, сиамские близнецы, укротительница змей Руте, а также карлик-надзиратель Самсон.
Владельцем цирка является загадочный Хозяин, который имеет определенные планы относительно молодого Хокинса, поскольку тот скрывает тайный дар. Он может исцелять больных и оживлять мертвых, правда, ценой другой жизни.
А еще у Бена бывают странные сны. И он не единственный, кто их видит. У проповедника из Калифорнии Джастина Кроу, который когда-то встречался с Беном, бывают такие же самые видения. Джастин считает, что выполняет Божью волю. Однако со временем действия священника приводят к странным и трагическим последствиям.
В эту «последнюю большую эпоху магии» конфликт между Беном и Джастином оказывается борьбой Добра и Зла, и неизвестно, кто на чьей стороне.



Качество: WEB-DLRip
Формат: AVI
Видео кодек: XviD
Аудио кодек: MP3
Видео: 656x368 (1.78:1), 23.976 fps, 956 kbps avg, 0.165 bit/pixel
Аудио Rus: 48 kHz, 2 ch, 128.00 kbps avg
Аудио Eng: 48 kHz, 2 ch, 128.00 kbps avg
Субтитры: отсутствуют
General
Complete name : F:\Карнавал (Сезон 1) НТВ\Carnivale.S01E01.WEB-DLRip.NTV.avi
Format : AVI
Format/Info : Audio Video Interleave
File size : 505 MiB
Duration : 57mn 39s
Overall bit rate : 1 226 Kbps
Writing application : VirtualDubMod 1.5.10.2 (build 2540/release)
Writing library : VirtualDubMod build 2540/release

Video
ID : 0
Format : MPEG-4 Visual
Format profile : Advanced Simple@L5
Format settings, BVOP : 1
Format settings, QPel : No
Format settings, GMC : No warppoints
Format settings, Matrix : Default (H.263)
Codec ID : XVID
Codec ID/Hint : XviD
Duration : 57mn 39s
Bit rate : 956 Kbps
Width : 656 pixels
Height : 368 pixels
Display aspect ratio : 16:9
Frame rate : 23.976 fps
Color space : YUV
Chroma subsampling : 4:2:0
Bit depth : 8 bits
Scan type : Progressive
Compression mode : Lossy
Bits/(Pixel*Frame) : 0.165
Stream size : 394 MiB (78%)
Writing library : XviD 1.2.1 (UTC 2008-12-04)
Audio #1
ID : 1
Format : MPEG Audio
Format version : Version 1
Format profile : Layer 3
Codec ID : 55
Codec ID/Hint : MP3
Duration : 57mn 38s
Bit rate mode : Constant
Bit rate : 128 Kbps
Channel count : 2 channels
Sampling rate : 48.0 KHz
Compression mode : Lossy
Stream size : 52.8 MiB (10%)
Alignment : Aligned on interleaves
Interleave, duration : 42 ms (1.00 video frame)
Interleave, preload duration : 504 ms
Writing library : LAME3.98r
Encoding settings : -m s -V 4 -q 2 -lowpass 17 -b 128
Audio #2
ID : 2
Format : MPEG Audio
Format version : Version 1
Format profile : Layer 3
Codec ID : 55
Codec ID/Hint : MP3
Duration : 57mn 39s
Bit rate mode : Constant
Bit rate : 128 Kbps
Channel count : 2 channels
Sampling rate : 48.0 KHz
Compression mode : Lossy
Stream size : 52.8 MiB (10%)
Alignment : Aligned on interleaves
Interleave, duration : 42 ms (1.00 video frame)
Interleave, preload duration : 504 ms
Writing library : LAME3.98r
Encoding settings : -m s -V 4 -q 2 -lowpass 17 -b 128



Скачать Карнавал.Carnivale.(1х01-12.из.12).(Родриго.Гарсия).[2003.Фэнтези.триллер.драма.детектив.мистика.WEB-DLRip].MVO.(НТВ).+.Original.torrent без регистрации
Золото ЗОЛОТАЯ РАЗДАЧА! СКАЧАННОЕ НЕ ЗАСЧИТЫВАЕТСЯ! Золото
Дата: Зарегистрирован   [ Тип: внутренний ] Как тут cкачать?
MAGNET ссылка
MAGNET ссылка


Скачать .torrent

16 KB

Статус: проверено DHT
Скачан: торрент - 235 раз, раздача полностью - 25 раз
Размер: 5,9 GB
Оценка:  - (Голосов: 0)
Поблагодарили: 3
Поделиться ссылкой на эту раздачу с друзьями:
В контактеFacebookОдноклассникиTwitterLivejournalМой МирLiveinternet
 

 
Показать сообщения:    


Вы не можете начинать темы
Вы не можете отвечать на сообщения
Вы не можете редактировать свои сообщения
Вы не можете удалять свои сообщения
Вы не можете голосовать в опросах
Вы не можете прикреплять файлы к сообщениям
Вы можете скачивать файлы