Loading...
Error

Скачать Затащи меня в Ад / Drag Me to Hell (Сэм Рэйми) [2009, ужасы, триллер, BDRip-AVC] [Dub]+[MVO]+[AVO]x2+[DVO]+[Оригинал]+[Sub]x2 торрент без регистрации

 
Статистика раздачи
Размер:  3,52 GB   |    Скачан:  139 раз
Сидов:  1  [  0 KB/s  ]  
 
Автор Сообщение

Marsianka

[] 

Информация о фильме
Название: Затащи меня в Ад
Оригинальное название: Drag Me to Hell
Год выхода: 2009
Жанр: ужасы, триллер
Режиссер: Сэм Рэйми
В ролях: Джастин Лонг, Челси Росс, Дэвид Пэймер, Алексей Мясников, Нина Тобилевич, Илья Хвостиков, Наталья Фищук, Василий Дахненко, Элисон Ломан, Лорна Рэвер, Дилип Рао, Адриана Барраза, Регги Ли, Молли Чик, Бояна Новакович

О фильме: Кристина Браун живет в Лос-Анжелесе, работает в банке, оформляя клиентам ссуды, у нее обаятельный и любящий бойфренд, профессор Клэй Далтон. Все складывается хорошо и, казалось, что жизнь удалась…, но только до тех пор, пока в банке не появляется некая миссис Гануш с просьбой об отсрочке ипотечного кредита. Кристина и рада бы пойти навстречу старой женщине, но перед ней маячит возможность занять более высокую должность в банке, и она отказывает старухе. В ответ, та накладывает на нее проклятие, и жизнь девушки превращается в непрерывный кошмар. Теперь помочь Кристине может только провидица Шаун Сэн Дена.



Страна: США
Студия: Universal Pictures, Ghost House Pictures, Buckaroo Entertainment, Curse Productions, Mandate Pictures
Продолжительность: 01:38:52
Перевод: Дублированный, профессиональный многоголосый, авторский одноголосый, украинский

Файл
Кодек: MPEG-4 AVC
Качество: BDRip-AVC
Видео: 2400 Кбит/с, 1024х426, 23.976 кадр/с
Аудио #1: Русский (AC3, 6 ch, 448 Кбит/с) / Дублированный
Аудио #2: Русский (AC3, 6 ch, 448 Кбит/с) / Профессиональный многоголосый
Аудио #3: Русский (AC3, 6 ch, 448 Кбит/с) / Авторский одноголосый (А. Гаврилов)
Аудио #4: Русский (AC3, 6 ch, 448 Кбит/с) / Авторский одноголосый (Ю. Немахов)
Аудио #5: Украинский (AC3, 6 ch, 448 Кбит/с) / Профессиональный двухголосый
Аудио #6: Английский (AC3, 6 ch, 448 Кбит/с)
Субтитры: Русские, английские
Семпл
Общее
Уникальный идентификатор : 191356910319960007028339507682510626405 (0x8FF60017ECBF4D3694122D07FBDFDE65)
Полное имя : D:2Films DРелизыZatashhi.menja.v.Ad.2009.x264.BDRip.AVC.MediaClub.mkv
Формат : Matroska
Версия формата : Version 4 / Version 2
Размер файла : 3,52 Гбайт
Продолжительность : 1 ч. 38 м.
Общий поток : 5087 Кбит/сек
Название фильма : -= MediaClub =- rip by Lefevr
Дата кодирования : UTC 2014-09-18 13:58:14
Программа кодирования : mkvmerge v6.6.0 ('The Edge Of The In Between') built on Dec 1 2013 17:55:00
Библиотека кодирования : libebml v1.3.0 + libmatroska v1.4.1

Видео
Идентификатор : 1
Формат : AVC
Формат/Информация : Advanced Video Codec
Профиль формата : High@L4.1
Параметр CABAC формата : Да
Параметр ReFrames формата : 9 кадров
Идентификатор кодека : V_MPEG4/ISO/AVC
Продолжительность : 1 ч. 38 м.
Битрейт : 2400 Кбит/сек
Ширина : 1024 пикселя
Высота : 426 пикселей
Соотношение сторон : 2,40:1
Режим частоты кадров : Постоянный
Частота кадров : 23,976 кадра/сек
Цветовое пространство : YUV
Субдискретизация насыщенности : 4:2:0
Битовая глубина : 8 бит
Тип развёртки : Прогрессивная
Бит/(Пиксели*Кадры) : 0.229
Размер потока : 1,59 Гбайт (45%)
Заголовок : Zatashhi.menja.v.Ad.2009.x264.BDRip.AVC.MediaClub
Библиотека кодирования : x264 core 142 r2409+42 04be48a tMod [8-bit@4:2:0 X86]
Настройки программы : cabac=1 / ref=9 / deblock=1:-2:-2 / analyse=0x3:0x133 / me=umh / subme=11 / psy=1 / fade_compensate=0.00 / psy_rd=1.00:0.15 / mixed_ref=1 / me_range=32 / chroma_me=1 / trellis=2 / 8x8dct=1 / cqm=0 / deadzone=21,11 / fast_pskip=0 / chroma_qp_offset=-3 / threads=6 / lookahead_threads=1 / sliced_threads=0 / nr=0 / decimate=0 / interlaced=0 / bluray_compat=0 / constrained_intra=0 / fgo=0 / bframes=8 / b_pyramid=2 / b_adapt=2 / b_bias=0 / direct=3 / weightb=1 / open_gop=0 / weightp=2 / keyint=240 / keyint_min=23 / scenecut=40 / intra_refresh=0 / rc=2pass / mbtree=0 / bitrate=2400 / ratetol=1.0 / qcomp=0.60 / qpmin=0:0:0 / qpmax=69:69:69 / qpstep=4 / cplxblur=20.0 / qblur=0.5 / ip_ratio=1.40 / pb_ratio=1.30 / aq=1:1.00 / aq-sensitivity=10.00 / aq-factor=1.00:1.00:1.00 / aq2=0 / aq3=0
Язык : English
Default : Да
Forced : Да

Аудио #1
Идентификатор : 2
Формат : AC-3
Формат/Информация : Audio Coding 3
Расширение режима : CM (complete main)
Параметр Endianness формата : Big
Идентификатор кодека : A_AC3
Продолжительность : 1 ч. 38 м.
Вид битрейта : Постоянный
Битрейт : 448 Кбит/сек
Каналы : 6 каналов
Расположение каналов : Front: L C R, Side: L R, LFE
Частота : 48,0 КГц
Битовая глубина : 16 бит
Метод сжатия : С потерями
Размер потока : 317 Мбайт (9%)
Заголовок : TRACK_01_DUB_RUS
Язык : Russian
Default : Да
Forced : Да

Аудио #2
Идентификатор : 3
Формат : AC-3
Формат/Информация : Audio Coding 3
Расширение режима : CM (complete main)
Параметр Endianness формата : Big
Идентификатор кодека : A_AC3
Продолжительность : 1 ч. 38 м.
Вид битрейта : Постоянный
Битрейт : 448 Кбит/сек
Каналы : 6 каналов
Расположение каналов : Front: L C R, Side: L R, LFE
Частота : 48,0 КГц
Битовая глубина : 16 бит
Метод сжатия : С потерями
Размер потока : 317 Мбайт (9%)
Заголовок : TRACK_02_MVO_RUS
Язык : Russian
Default : Нет
Forced : Нет

Аудио #3
Идентификатор : 4
Формат : AC-3
Формат/Информация : Audio Coding 3
Расширение режима : CM (complete main)
Параметр Endianness формата : Big
Идентификатор кодека : A_AC3
Продолжительность : 1 ч. 38 м.
Вид битрейта : Постоянный
Битрейт : 448 Кбит/сек
Каналы : 6 каналов
Расположение каналов : Front: L C R, Side: L R, LFE
Частота : 48,0 КГц
Битовая глубина : 16 бит
Метод сжатия : С потерями
Размер потока : 317 Мбайт (9%)
Заголовок : TRACK_03_AVO_RUS_Gavrilov
Язык : Russian
Default : Нет
Forced : Нет

Аудио #4
Идентификатор : 5
Формат : AC-3
Формат/Информация : Audio Coding 3
Расширение режима : CM (complete main)
Параметр Endianness формата : Big
Идентификатор кодека : A_AC3
Продолжительность : 1 ч. 38 м.
Вид битрейта : Постоянный
Битрейт : 448 Кбит/сек
Каналы : 6 каналов
Расположение каналов : Front: L C R, Side: L R, LFE
Частота : 48,0 КГц
Битовая глубина : 16 бит
Метод сжатия : С потерями
Размер потока : 317 Мбайт (9%)
Заголовок : TRACK_04_AVO_RUS_Nemahov
Язык : Russian
Default : Нет
Forced : Нет

Аудио #5
Идентификатор : 6
Формат : AC-3
Формат/Информация : Audio Coding 3
Расширение режима : CM (complete main)
Параметр Endianness формата : Big
Идентификатор кодека : A_AC3
Продолжительность : 1 ч. 38 м.
Вид битрейта : Постоянный
Битрейт : 448 Кбит/сек
Каналы : 6 каналов
Расположение каналов : Front: L C R, Side: L R, LFE
Частота : 48,0 КГц
Битовая глубина : 16 бит
Метод сжатия : С потерями
Размер потока : 317 Мбайт (9%)
Заголовок : TRACK_05_DVO_UKR
Язык : Ukrainian
Default : Нет
Forced : Нет

Аудио #6
Идентификатор : 7
Формат : AC-3
Формат/Информация : Audio Coding 3
Расширение режима : CM (complete main)
Параметр Endianness формата : Big
Идентификатор кодека : A_AC3
Продолжительность : 1 ч. 38 м.
Вид битрейта : Постоянный
Битрейт : 448 Кбит/сек
Каналы : 6 каналов
Расположение каналов : Front: L C R, Side: L R, LFE
Частота : 48,0 КГц
Битовая глубина : 16 бит
Метод сжатия : С потерями
Размер потока : 317 Мбайт (9%)
Заголовок : TRACK_06_ORIGINAL_ENG
Язык : English
Default : Нет
Forced : Нет

Текст #1
Идентификатор : 8
Формат : UTF-8
Идентификатор кодека : S_TEXT/UTF8
Идентификатор кодека/Информация : UTF-8 Plain Text
Заголовок : TEXT_01_SUB_RUS
Язык : Russian
Default : Нет
Forced : Нет

Текст #2
Идентификатор : 9
Формат : UTF-8
Идентификатор кодека : S_TEXT/UTF8
Идентификатор кодека/Информация : UTF-8 Plain Text
Заголовок : TEXT_02_SUB_ENG
Язык : English
Default : Нет
Forced : Нет

Меню
00:00:00.000 : en:The Curse
00:05:28.453 : en:Christine Brown
00:10:43.726 : en:Mrs. Ganush
00:16:38.039 : en:Cursed
00:22:34.103 : en:Rham Jas
00:29:36.942 : en:The First Visit
00:35:46.895 : en:Post-traumatic Stress
00:40:37.393 : en:Christine Blood
00:45:49.914 : en:A Funeral / The Lamia
00:51:32.923 : en:The Second Visit
00:59:11.089 : en:Dinner With the Daltons
01:07:01.643 : en:No Guarantees
01:13:09.885 : en:The Seance
01:19:52.663 : en:Make a Gift of It
01:25:13.066 : en:Returning to the Dead
01:34:07.851 : en:A Slight Mix-Up / End Credits

...last pass...

x264.exe: --pass 2 --bitrate 2400 --preset slow --profile high --level 4.1 --ref 9 --deblock -2:-2 --merange 32 --bframes 8 --trellis 2 --no-fast-pskip --no-dct-decimate --psy-rd 1.00:0.15 --partitions all --subme 11 --no-mbtree --keyint 240 --sar 1:1 --stats "C:1Films CРелизыDrag.Me.to.Hell11111.log" --output "C:1Films CРелизыDrag.Me.to.Hell11111.mkv" "C:Temp399.avs"

avs [info]: 1024x426p 1:1 @ 24000/1001 fps (cfr)
avs [info]: color matrix: undef
x264 [info]: using SAR=1/1
x264 [info]: using cpu capabilities: MMX2 SSE2Fast SSSE3 SSE4.2 AVX
x264 [info]: profile High, level 4.1
x264 [info]: cabac=1 ref=9 deblock=1:-2:-2 analyse=0x3:0x133 me=umh subme=11 psy=1 fade_compensate=0.00 psy_rd=1.00:0.15 mixed_ref=1 me_range=32 chroma_me=1 trellis=2 8x8dct=1 cqm=0 deadzone=21,11 fast_pskip=0 chroma_qp_offset=-3 threads=6 lookahead_threads=1 sliced_threads=0 nr=0 decimate=0 interlaced=0 bluray_compat=0 constrained_intra=0 fgo=0 bframes=8 b_pyramid=2 b_adapt=2 b_bias=0 direct=3 weightb=1 open_gop=0 weightp=2 keyint=240 keyint_min=23 scenecut=40 intra_refresh=0 rc=2pass mbtree=0 bitrate=2400 ratetol=1.0 qcomp=0.60 qpmin=0:0:0 qpmax=69:69:69 qpstep=4 cplxblur=20.0 qblur=0.5 ip_ratio=1.40 pb_ratio=1.30 aq=1:1.00 aq-sensitivity=10.00 aq-factor=1.00:1.00:1.00 aq2=0 aq3=0
x264 [info]: started at Thu Jul 17 23:06:17 2014

x264 [info]: frame I:1316 Avg QP:15.07 size: 71725
x264 [info]: frame P:31555 Avg QP:17.73 size: 24922
x264 [info]: frame B:109345 Avg QP:19.24 size: 8217
x264 [info]: consecutive B-frames: 2.7% 3.6% 7.6% 19.5% 15.5% 38.2% 7.2% 3.5% 2.1%
x264 [info]: mb I I16..4: 17.9% 59.9% 22.2%
x264 [info]: mb P I16..4: 1.4% 13.7% 1.7% P16..4: 29.3% 36.2% 14.0% 2.5% 0.2% skip: 1.0%
x264 [info]: mb B I16..4: 0.1% 1.3% 0.2% B16..8: 37.4% 22.8% 4.1% direct: 5.7% skip:28.5% L0:43.8% L1:44.5% BI:11.8%
x264 [info]: 8x8 transform intra:78.1% inter:53.1%
x264 [info]: direct mvs spatial:98.3% temporal:1.7%
x264 [info]: coded y,uvDC,uvAC intra: 90.4% 86.7% 71.1% inter: 29.1% 21.2% 11.7%
x264 [info]: i16 v,h,dc,p: 26% 10% 22% 42%
x264 [info]: i8 v,h,dc,ddl,ddr,vr,hd,vl,hu: 9% 7% 12% 9% 13% 13% 12% 12% 13%
x264 [info]: i4 v,h,dc,ddl,ddr,vr,hd,vl,hu: 11% 7% 16% 8% 13% 13% 11% 11% 11%
x264 [info]: i8c dc,h,v,p: 45% 22% 17% 17%
x264 [info]: Weighted P-Frames: Y:12.2% UV:7.9%
x264 [info]: ref P L0: 43.6% 8.8% 19.4% 7.6% 6.5% 4.4% 4.3% 2.4% 2.4% 0.5% 0.1%
x264 [info]: ref B L0: 69.7% 13.5% 6.6% 3.8% 2.6% 2.2% 1.2% 0.4%
x264 [info]: ref B L1: 91.9% 8.1%
x264 [info]: kb/s:2399.82

encoded 142216 frames, 9.487 fps, 2399.82 kb/s, 1696.9 MB
Релиз от: | Автор рипа:



Скачать Затащи.меня.в.Ад.Drag.Me.to.Hell.(Сэм.Рэйми).[2009.ужасы.триллер.BDRip-AVC].[Dub]+[MVO]+[AVO]x2+[DVO]+[Оригинал]+[Sub]x2.torrent без регистрации
Золото ЗОЛОТАЯ РАЗДАЧА! СКАЧАННОЕ НЕ ЗАСЧИТЫВАЕТСЯ! Золото
Дата: Зарегистрирован   [ Тип: внутренний ] Как тут cкачать?
MAGNET ссылка
MAGNET ссылка


Скачать .torrent

18 KB

Статус: проверено DHT
Скачан: торрент - 139 раз, раздача полностью - 55 раз
Размер: 3,52 GB
Оценка:  - (Голосов: 0)
Поблагодарили: 1
Поделиться ссылкой на эту раздачу с друзьями:
В контактеFacebookОдноклассникиTwitterLivejournalМой МирLiveinternet
 

 
Показать сообщения:    


Вы не можете начинать темы
Вы не можете отвечать на сообщения
Вы не можете редактировать свои сообщения
Вы не можете удалять свои сообщения
Вы не можете голосовать в опросах
Вы не можете прикреплять файлы к сообщениям
Вы можете скачивать файлы