Loading...
Error

Скачать Опасные сны / In My Sleep (Аллен Вульф) [2009, триллер, драма, детектив, BDRip-AVC] [DVO] торрент без регистрации

 
Статистика раздачи
Размер:  2,18 GB   |    Скачан:  144 раза
Сидов:  1  [  0 KB/s  ]  
 
Автор Сообщение

Marsianka

[] 

Информация о фильме:
Название: Опасные сны
Оригинальное название: In My Sleep
Год выхода: 2009
Жанр: триллер, драма, детектив
Режиссер: Аллен Вульф
В ролях: Филип Уинчестер, Тим Драксл, Лэйси Чэберт, Эбигейл Спенсер, Келли Овертон, Эми Акино, Тони Хейл, Кевин Килнер, Эйдан Митчел, Майкл Бадалукко

О фильме:
Маркус просыпается на кладбище и не может понять, как он туда попал. В его голове множество вопросов: Где я был прошлой ночью? С кем? Маркус страдает парасомнией, редким расстройством сна, в результате которого во сне делает то, что не может вспомнить на следующий день.

Его ситуация принимает ужасающий оборот, когда Маркус просыпается весь в крови и обнаруживает рядом с собой нож. Вскоре жену его лучшего друга находят мертвой, ее закололи ножом. Маркус в ужасе связывает эти два события. Возможно ли, что он убил ее во время своего сна, чтобы скрыть тайну, существовавшую между ними?

Загадочные телефонные звонки заставляют Маркуса думать, что кто-то наблюдает за ним. Он исследует свои собственные ночные поступки, в отчаянии пытаясь понять, что происходит, когда он засыпает ночью. Его попытки узнать правду заканчиваются шокирующим открытием.



Выпущено: США
Продолжительность: 01:44:38
Перевод: Профессиональный (двухголосый, закадровый) R5
Субтитры: Нет

Файл:
Формат: .MKV
Качество: BDRip-AVC (источник: BDRemux / 1080p )
Видео: 1024x576, 23.976 fps, AVC ~2700 kbps
Звук: 48 kHz, AC3 Dolby Digital, 2/0 (L,R) ~192.00 kbps
General
Unique ID : 205739340877363240465772211447308452434 (0x9AC7F4AAF2097DD3957E467125F38252)
Complete name : F:FILMSIn.My.Sleep.(2009).BDRip-AVC.[-=DoMiNo=-].mkv
Format : Matroska
Format version : Version 2
File size : 2.18 GiB
Duration : 1h 44mn
Overall bit rate : 2 986 Kbps
Movie name : In.My.Sleep.2009.1080p.Bluray.AVC.Remux
Encoded date : UTC 2014-09-13 22:40:15
Writing application : mkvmerge v6.1.0 ('Old Devil') built on Mar 4 2013 09:10:42
Writing library : libebml v1.3.0 + libmatroska v1.4.0

Video
ID : 1
Format : AVC
Format/Info : Advanced Video Codec
Format profile : High@L4.1
Format settings, CABAC : Yes
Format settings, ReFrames : 9 frames
Codec ID : V_MPEG4/ISO/AVC
Duration : 1h 44mn
Bit rate : 2 792 Kbps
Width : 1 024 pixels
Height : 576 pixels
Display aspect ratio : 16:9
Frame rate mode : Constant
Frame rate : 23.976 fps
Color space : YUV
Chroma subsampling : 4:2:0
Bit depth : 8 bits
Scan type : Progressive
Bits/(Pixel*Frame) : 0.197
Stream size : 2.00 GiB (92%)
Writing library : x264 core 130 r2273 b3065e6
Encoding settings : cabac=1 / ref=9 / deblock=1:-3:-3 / analyse=0x3:0x133 / me=umh / subme=11 / psy=1 / psy_rd=1.00:0.50 / mixed_ref=1 / me_range=48 / chroma_me=1 / trellis=2 / 8x8dct=1 / cqm=0 / deadzone=21,11 / fast_pskip=0 / chroma_qp_offset=-3 / threads=16 / lookahead_threads=4 / sliced_threads=0 / slices=4 / nr=0 / decimate=0 / interlaced=0 / bluray_compat=0 / constrained_intra=0 / bframes=12 / b_pyramid=2 / b_adapt=2 / b_bias=0 / direct=3 / weightb=1 / open_gop=0 / weightp=2 / keyint=250 / keyint_min=23 / scenecut=40 / intra_refresh=0 / rc_lookahead=60 / rc=2pass / mbtree=1 / bitrate=2792 / ratetol=1.0 / qcomp=0.70 / qpmin=0 / qpmax=69 / qpstep=4 / cplxblur=20.0 / qblur=0.5 / ip_ratio=1.40 / aq=2:2.00
Default : Yes
Forced : No

Audio
ID : 2
Format : AC-3
Format/Info : Audio Coding 3
Mode extension : CM (complete main)
Format settings, Endianness : Big
Codec ID : A_AC3
Duration : 1h 44mn
Bit rate mode : Constant
Bit rate : 192 Kbps
Channel(s) : 2 channels
Channel positions : Front: L R
Sampling rate : 48.0 KHz
Bit depth : 16 bits
Compression mode : Lossy
Stream size : 144 MiB (6%)
Title : R5
Language : Russian
Default : Yes
Forced : No







Скачать Опасные.сны.In.My.Sleep.(Аллен.Вульф).[2009.триллер.драма.детектив.BDRip-AVC].[DVO].torrent без регистрации
Золото ЗОЛОТАЯ РАЗДАЧА! СКАЧАННОЕ НЕ ЗАСЧИТЫВАЕТСЯ! Золото
Дата: Зарегистрирован   [ Тип: внутренний ] Как тут cкачать?
MAGNET ссылка
MAGNET ссылка


Скачать .torrent

12 KB

Статус: проверено DHT
Скачан: торрент - 144 раз, раздача полностью - 31 раз
Размер: 2,18 GB
Оценка:  - (Голосов: 0)
Поблагодарили: 1
Поделиться ссылкой на эту раздачу с друзьями:
В контактеFacebookОдноклассникиTwitterLivejournalМой МирLiveinternet
 

 
Показать сообщения:    


Вы не можете начинать темы
Вы не можете отвечать на сообщения
Вы не можете редактировать свои сообщения
Вы не можете удалять свои сообщения
Вы не можете голосовать в опросах
Вы не можете прикреплять файлы к сообщениям
Вы можете скачивать файлы