Loading...
Error

Скачать Флаги наших отцов / Flags of Our Fathers (Клинт Иствуд) [2006, драма, военный, история, BDRip-AVC] [MVO]x2+[DVO]+[AVO]+[Sub]x2 торрент без регистрации

 
Статистика раздачи
Размер:  4,4 GB   |    Скачан:  110 раз

Полного источника не было: 27 минут

 
Автор Сообщение

Marsianka

[] 

Информация о фильме
Название: Флаги наших отцов
Оригинальное название: Flags of Our Fathers
Год выхода: 2006
Жанр: драма, военный, история
Режиссер: Клинт Иствуд
В ролях: Райан Филипп, Джесси Брэдфорд, Адам Бич, Джон Бенжамин Хикки, Джон Слэттери, Бэрри Пеппер, Джейми Белл, Пол Уокер, Роберт Патрик, Нил МакДонаф, Мелани Лински, Томас МакКарти, Кристофер Бауэр, Джудит Айви, Мира Терли, Джозеф Кросс, Бенджамин Уокер, Алессандро Мастробуоно, Скотт Иствуд, Старк Сэндс

О фильме: История жизни шести американских пехотинцев, водрузивших флаг на вершине горы Сурибачи во время битвы при Иводзиме. Операция по овладению островом Иводзима стала переломным моментом в ходе Тихоокеанской кампании США против Японии весной 1945 года.



Страна: США
Студия: Amblin Entertainment, DreamWorks SKG, Malpaso Productions, Warner Bros. Pictures
Продолжительность: 02:11:54
Перевод: Профессиональный многоголосый, профессиональный двухголосый, авторский одноголосый, украинский

Файл
Кодек: MPEG-4 AVC
Качество: BDRip-AVC
Видео: 2600 Кбит/с, 1024х424, 23.976 кадр/с
Аудио #1: Русский (AC3, 6 ch, 384 Кбит/с) / Профессиональный многоголосый (R5)
Аудио #2: Русский (AC3, 6 ch, 448 Кбит/с) / Профессиональный двухголосый (П. Гланц и И. Королева)
Аудио #3: Русский (AC3, 6 ch, 448 Кбит/с) / Авторский одноголосый (Ю. Немахов)
Аудио #4: Украинский (AC3, 6 ch, 448 Кбит/с) / Профессиональный многоголосый (IHTEP)
Аудио #5: Английский (AC3, 6 ch, 448 Кбит/с)
Субтитры: Русские, английские
Семпл
Общее
Уникальный идентификатор : 210874020454382393326088729373216069841 (0x9EA4DBEA9C9FB72583A4C099AEA7D8D1)
Полное имя : D:2Films DРелизыFlagi.nashih.otcov.2006.x264.BDRip.AVC.MediaClub.mkv
Формат : Matroska
Версия формата : Version 4 / Version 2
Размер файла : 4,40 Гбайт
Продолжительность : 2 ч. 11 м.
Общий поток : 4777 Кбит/сек
Название фильма : -= MediaClub =- rip by Lefevr
Дата кодирования : UTC 2014-09-18 14:25:58
Программа кодирования : mkvmerge v6.6.0 ('The Edge Of The In Between') built on Dec 1 2013 17:55:00
Библиотека кодирования : libebml v1.3.0 + libmatroska v1.4.1

Видео
Идентификатор : 1
Формат : AVC
Формат/Информация : Advanced Video Codec
Профиль формата : High@L4.1
Параметр CABAC формата : Да
Параметр ReFrames формата : 10 кадров
Идентификатор кодека : V_MPEG4/ISO/AVC
Продолжительность : 2 ч. 11 м.
Битрейт : 2600 Кбит/сек
Ширина : 1024 пикселя
Высота : 424 пикселя
Соотношение сторон : 2,40:1
Режим частоты кадров : Постоянный
Частота кадров : 23,976 кадра/сек
Цветовое пространство : YUV
Субдискретизация насыщенности : 4:2:0
Битовая глубина : 8 бит
Тип развёртки : Прогрессивная
Бит/(Пиксели*Кадры) : 0.250
Размер потока : 2,31 Гбайт (52%)
Заголовок : Flagi.nashih.otcov.2006.x264.BDRip.AVC.MediaClub
Библиотека кодирования : x264 core 142 r2409+42 04be48a tMod [8-bit@4:2:0 X86]
Настройки программы : cabac=1 / ref=10 / deblock=1:-2:-2 / analyse=0x3:0x133 / me=umh / subme=11 / psy=1 / fade_compensate=0.00 / psy_rd=1.00:0.20 / mixed_ref=1 / me_range=32 / chroma_me=1 / trellis=2 / 8x8dct=1 / cqm=0 / deadzone=21,11 / fast_pskip=0 / chroma_qp_offset=-3 / threads=6 / lookahead_threads=1 / sliced_threads=0 / nr=0 / decimate=0 / interlaced=0 / bluray_compat=0 / constrained_intra=0 / fgo=0 / bframes=8 / b_pyramid=2 / b_adapt=2 / b_bias=0 / direct=3 / weightb=1 / open_gop=0 / weightp=2 / keyint=240 / keyint_min=23 / scenecut=40 / intra_refresh=0 / rc=2pass / mbtree=0 / bitrate=2600 / ratetol=1.0 / qcomp=0.60 / qpmin=0:0:0 / qpmax=69:69:69 / qpstep=4 / cplxblur=20.0 / qblur=0.5 / ip_ratio=1.40 / pb_ratio=1.30 / aq=1:1.00 / aq-sensitivity=10.00 / aq-factor=1.00:1.00:1.00 / aq2=0 / aq3=0
Язык : English
Default : Да
Forced : Нет

Аудио #1
Идентификатор : 2
Формат : AC-3
Формат/Информация : Audio Coding 3
Расширение режима : CM (complete main)
Параметр Endianness формата : Big
Идентификатор кодека : A_AC3
Продолжительность : 2 ч. 11 м.
Вид битрейта : Постоянный
Битрейт : 384 Кбит/сек
Каналы : 6 каналов
Расположение каналов : Front: L C R, Side: L R, LFE
Частота : 48,0 КГц
Битовая глубина : 16 бит
Метод сжатия : С потерями
Размер потока : 362 Мбайт (8%)
Заголовок : TRACK_01_MVO_RUS_R5
Язык : Russian
Default : Да
Forced : Да

Аудио #2
Идентификатор : 3
Формат : AC-3
Формат/Информация : Audio Coding 3
Расширение режима : CM (complete main)
Параметр Endianness формата : Big
Идентификатор кодека : A_AC3
Продолжительность : 2 ч. 11 м.
Вид битрейта : Постоянный
Битрейт : 448 Кбит/сек
Каналы : 6 каналов
Расположение каналов : Front: L C R, Side: L R, LFE
Частота : 48,0 КГц
Битовая глубина : 16 бит
Метод сжатия : С потерями
Размер потока : 423 Мбайт (9%)
Заголовок : TRACK_02_DVO_RUS_Glanc&Koroleva
Язык : Russian
Default : Нет
Forced : Нет

Аудио #3
Идентификатор : 4
Формат : AC-3
Формат/Информация : Audio Coding 3
Расширение режима : CM (complete main)
Параметр Endianness формата : Big
Идентификатор кодека : A_AC3
Продолжительность : 2 ч. 11 м.
Вид битрейта : Постоянный
Битрейт : 448 Кбит/сек
Каналы : 6 каналов
Расположение каналов : Front: L C R, Side: L R, LFE
Частота : 48,0 КГц
Битовая глубина : 16 бит
Метод сжатия : С потерями
Размер потока : 423 Мбайт (9%)
Заголовок : TRACK_03_AVO_RUS_Nemahov
Язык : Russian
Default : Нет
Forced : Нет

Аудио #4
Идентификатор : 5
Формат : AC-3
Формат/Информация : Audio Coding 3
Расширение режима : CM (complete main)
Параметр Endianness формата : Big
Идентификатор кодека : A_AC3
Продолжительность : 2 ч. 11 м.
Вид битрейта : Постоянный
Битрейт : 448 Кбит/сек
Каналы : 6 каналов
Расположение каналов : Front: L C R, Side: L R, LFE
Частота : 48,0 КГц
Битовая глубина : 16 бит
Метод сжатия : С потерями
Размер потока : 423 Мбайт (9%)
Заголовок : TRACK_04_MVO_UKR_IHTEP
Язык : Ukrainian
Default : Нет
Forced : Нет

Аудио #5
Идентификатор : 6
Формат : AC-3
Формат/Информация : Audio Coding 3
Расширение режима : CM (complete main)
Параметр Endianness формата : Big
Идентификатор кодека : A_AC3
Продолжительность : 2 ч. 11 м.
Вид битрейта : Постоянный
Битрейт : 448 Кбит/сек
Каналы : 6 каналов
Расположение каналов : Front: L C R, Side: L R, LFE
Частота : 48,0 КГц
Битовая глубина : 16 бит
Метод сжатия : С потерями
Размер потока : 423 Мбайт (9%)
Заголовок : TRACK_05_ORIGINAL_ENG
Язык : English
Default : Нет
Forced : Нет

Текст #1
Идентификатор : 7
Формат : UTF-8
Идентификатор кодека : S_TEXT/UTF8
Идентификатор кодека/Информация : UTF-8 Plain Text
Заголовок : TEXT_01_SUB_RUS
Язык : Russian
Default : Нет
Forced : Нет

Текст #2
Идентификатор : 8
Формат : UTF-8
Идентификатор кодека : S_TEXT/UTF8
Идентификатор кодека/Информация : UTF-8 Plain Text
Заголовок : TEXT_02_SUB_ENG
Язык : English
Default : Нет
Forced : Нет

Меню
00:00:00.000 : en:One Photo
00:06:47.615 : en:Doc Bradley
00:10:39.430 : en:Buddies
00:14:38.252 : en:No Man Left Behind
00:20:05.078 : en:3 Days of Bombing
00:26:40.807 : en:Invasion Day
00:38:00.778 : en:I Wasn't There
00:43:06.709 : en:Welcome Home Heroes
00:50:56.887 : en:Buy Bonds
00:58:08.735 : en:Ira Struggles on Tour
01:03:36.354 : en:Gold Star Mothers
01:09:31.292 : en:Raising the Flag
01:14:55.199 : en:No One Even Noticed
01:21:09.281 : en:He Didn't Serve Me
01:30:02.772 : en:Iggy
01:36:00.337 : en:Can I See My Mom?
01:41:52.481 : en:City After City
01:47:36.908 : en:Yesterday's Heroes
01:52:10.432 : en:Thanks for Calling
01:58:43.991 : en:Swimming
02:03:27.566 : en:End Credits

...last pass...

x264.exe: --pass 2 --bitrate 2600 --preset slow --profile high --level 4.1 --ref 10 --deblock -2:-2 --merange 32 --bframes 8 --trellis 2 --no-fast-pskip --no-dct-decimate --psy-rd 1.00:0.20 --partitions all --subme 11 --no-mbtree --keyint 240 --sar 1:1 --stats "C:1Films CРелизыFlags Of Our Fathers11111.log" --output "C:1Films CРелизыFlags Of Our Fathers11111.mkv" "C:Temp433.avs"

avs [info]: 1024x424p 1:1 @ 24000/1001 fps (cfr)
avs [info]: color matrix: undef
x264 [info]: using SAR=1/1
x264 [info]: using cpu capabilities: MMX2 SSE2Fast SSSE3 SSE4.2 AVX
x264 [info]: profile High, level 4.1
x264 [info]: cabac=1 ref=10 deblock=1:-2:-2 analyse=0x3:0x133 me=umh subme=11 psy=1 fade_compensate=0.00 psy_rd=1.00:0.20 mixed_ref=1 me_range=32 chroma_me=1 trellis=2 8x8dct=1 cqm=0 deadzone=21,11 fast_pskip=0 chroma_qp_offset=-3 threads=6 lookahead_threads=1 sliced_threads=0 nr=0 decimate=0 interlaced=0 bluray_compat=0 constrained_intra=0 fgo=0 bframes=8 b_pyramid=2 b_adapt=2 b_bias=0 direct=3 weightb=1 open_gop=0 weightp=2 keyint=240 keyint_min=23 scenecut=40 intra_refresh=0 rc=2pass mbtree=0 bitrate=2600 ratetol=1.0 qcomp=0.60 qpmin=0:0:0 qpmax=69:69:69 qpstep=4 cplxblur=20.0 qblur=0.5 ip_ratio=1.40 pb_ratio=1.30 aq=1:1.00 aq-sensitivity=10.00 aq-factor=1.00:1.00:1.00 aq2=0 aq3=0
x264 [info]: started at Sat Aug 16 16:58:55 2014

x264 [info]: frame I:1369 Avg QP:14.86 size: 73729
x264 [info]: frame P:49031 Avg QP:17.78 size: 25629
x264 [info]: frame B:139342 Avg QP:19.08 size: 8712
x264 [info]: consecutive B-frames: 4.1% 5.2% 12.0% 28.4% 19.3% 24.5% 3.5% 1.5% 1.5%
x264 [info]: mb I I16..4: 15.9% 54.3% 29.8%
x264 [info]: mb P I16..4: 1.6% 17.3% 3.0% P16..4: 25.2% 29.4% 14.0% 3.6% 0.5% skip: 5.4%
x264 [info]: mb B I16..4: 0.2% 2.0% 0.3% B16..8: 31.0% 23.4% 4.6% direct: 7.4% skip:31.2% L0:40.2% L1:40.7% BI:19.2%
x264 [info]: 8x8 transform intra:77.1% inter:42.9%
x264 [info]: direct mvs spatial:98.1% temporal:1.9%
x264 [info]: coded y,uvDC,uvAC intra: 91.7% 60.7% 35.1% inter: 31.6% 12.3% 5.1%
x264 [info]: i16 v,h,dc,p: 30% 7% 20% 43%
x264 [info]: i8 v,h,dc,ddl,ddr,vr,hd,vl,hu: 12% 10% 12% 8% 11% 10% 12% 11% 14%
x264 [info]: i4 v,h,dc,ddl,ddr,vr,hd,vl,hu: 14% 9% 7% 8% 14% 13% 14% 10% 13%
x264 [info]: i8c dc,h,v,p: 34% 38% 18% 10%
x264 [info]: Weighted P-Frames: Y:11.4% UV:4.0%
x264 [info]: ref P L0: 44.6% 12.4% 17.6% 6.3% 5.8% 3.7% 3.6% 1.9% 2.0% 1.7% 0.4% 0.1%
x264 [info]: ref B L0: 74.3% 11.3% 5.0% 2.9% 2.3% 1.8% 1.3% 0.7% 0.3%
x264 [info]: ref B L1: 94.4% 5.6%
x264 [info]: kb/s:2599.57
encoded 189742 frames, 9.256 fps, 2599.57 kb/s, 2452.4 MB
Релиз от: | Автор рипа:



Скачать Флаги.наших.отцов.Flags.of.Our.Fathers.(Клинт.Иствуд).[2006.драма.военный.история.BDRip-AVC].[MVO]x2+[DVO]+[AVO]+[Sub]x2.torrent без регистрации
Золото ЗОЛОТАЯ РАЗДАЧА! СКАЧАННОЕ НЕ ЗАСЧИТЫВАЕТСЯ! Золото
Дата: Зарегистрирован   [ Тип: внутренний ] Как тут cкачать?
MAGNET ссылка
MAGNET ссылка


Скачать .torrent

12 KB

Статус: проверено DHT
Скачан: торрент - 110 раз, раздача полностью - 32 раз
Размер: 4,4 GB
Оценка:  - (Голосов: 0)
Поблагодарили: 3
Поделиться ссылкой на эту раздачу с друзьями:
В контактеFacebookОдноклассникиTwitterLivejournalМой МирLiveinternet
 

 
Показать сообщения:    


Вы не можете начинать темы
Вы не можете отвечать на сообщения
Вы не можете редактировать свои сообщения
Вы не можете удалять свои сообщения
Вы не можете голосовать в опросах
Вы не можете прикреплять файлы к сообщениям
Вы можете скачивать файлы