Loading...
Error

Скачать Письма с Иводзимы / Letters from Iwo Jima (Клинт Иствуд) [2006, военный, драма, история, BDRip-AVC] [MVO]x2+[DVO]+[AVO]+[Sub]x3 торрент без регистрации

 
Статистика раздачи
Размер:  3,87 GB   |    Скачан:  133 раза
Сидов:  1  [  0 KB/s  ]  
 
Автор Сообщение

Marsianka

[] 

Информация о фильме
Название: Письма с Иводзимы
Оригинальное название: Letters from Iwo Jima
Год выхода: 2006
Жанр: военный, драма, история
Режиссер: Клинт Иствуд
В ролях: Кен Ватанабе, Казунари Ниномия, Цуёши Ихара, Рё Касэ, Шидо Накамура, Хироши Ватанабе, Такуми Бандо, Юки Матсузаки, Такаши Ямагучи, Эйджиро Озак, Нае Юки, Нобумаса Сакагами, Люк Эберл, Сонни Саито, Стив Санта Секиёши, Хиро Абе, Тошия Агата, Йоши Ишии, Тоши Тода, Кен Кенсей, Икума Андо, Акико Сима, Масаши Нагадои, Марк Мозес, Роксэнн Харт, Йошио Иидзука, Митсу, Такудзи Курамото, Кодзи Вада, Акира Канеда

О фильме: Другой взгляд на трагическую битву при Иводзиме, ставшую не только историческим событием, переломным моментом в ходе Тихоокеанской кампании США против Японии, но и столкновением культур и мировоззрений.



Страна: США
Студия: Amblin Entertainment, DreamWorks SKG, Warner Bros. Pictures
Продолжительность: 02:20:36
Перевод: Профессиональный многоголосый, профессиональный двухголосый, авторский одноголосый, украинский

Файл
Кодек: MPEG-4 AVC
Качество: BDRip-AVC
Видео: 1700 Кбит/с, 1024х428, 23.976 кадр/с
Аудио #1: Русский (AC3, 6 ch, 448 Кбит/с) / Профессиональный многоголосый (R5)
Аудио #2: Русский (AC3, 6 ch, 448 Кбит/с) / Профессиональный двухголосый (П. Гланц и И. Королева)
Аудио #3: Русский (AC3, 6 ch, 448 Кбит/с) / Авторский одноголосый (Ю. Сербин)
Аудио #4: Украинский (AC3, 6 ch, 448 Кбит/с) / Профессиональный многоголосый (IHTEP)
Аудио #5: Японский (AC3, 6 ch, 448 Кбит/с)
Субтитры: Русские, украинские, английские
Семпл
Общее
Уникальный идентификатор : 216372207515858813893478515514299415589 (0xA2C7C577C522E986ADDDE4CC2D487C25)
Полное имя : D:2Films DРелизыPisma.s.Ivodzimy.2006.x264.BDRip.AVC.MediaClub.mkv
Формат : Matroska
Версия формата : Version 4 / Version 2
Размер файла : 3,87 Гбайт
Продолжительность : 2 ч. 20 м.
Общий поток : 3940 Кбит/сек
Название фильма : -= MediaClub =- rip by Lefevr
Дата кодирования : UTC 2014-10-06 21:20:08
Программа кодирования : mkvmerge v6.6.0 ('The Edge Of The In Between') built on Dec 1 2013 17:55:00
Библиотека кодирования : libebml v1.3.0 + libmatroska v1.4.1

Видео
Идентификатор : 1
Формат : AVC
Формат/Информация : Advanced Video Codec
Профиль формата : High@L4.1
Параметр CABAC формата : Да
Параметр ReFrames формата : 9 кадров
Идентификатор кодека : V_MPEG4/ISO/AVC
Продолжительность : 2 ч. 20 м.
Битрейт : 1700 Кбит/сек
Ширина : 1024 пикселя
Высота : 428 пикселей
Соотношение сторон : 2,40:1
Режим частоты кадров : Постоянный
Частота кадров : 23,976 кадра/сек
Цветовое пространство : YUV
Субдискретизация насыщенности : 4:2:0
Битовая глубина : 8 бит
Тип развёртки : Прогрессивная
Бит/(Пиксели*Кадры) : 0.162
Размер потока : 1,59 Гбайт (41%)
Заголовок : Pisma.s.Ivodzimy.2006.x264.BDRip.AVC.MediaClub
Библиотека кодирования : x264 core 142 r2409+42 04be48a tMod [8-bit@4:2:0 X86]
Настройки программы : cabac=1 / ref=9 / deblock=1:-2:-2 / analyse=0x3:0x133 / me=umh / subme=11 / psy=1 / fade_compensate=0.00 / psy_rd=1.00:0.20 / mixed_ref=1 / me_range=32 / chroma_me=1 / trellis=2 / 8x8dct=1 / cqm=0 / deadzone=21,11 / fast_pskip=0 / chroma_qp_offset=-3 / threads=6 / lookahead_threads=1 / sliced_threads=0 / nr=0 / decimate=0 / interlaced=0 / bluray_compat=0 / constrained_intra=0 / fgo=0 / bframes=8 / b_pyramid=2 / b_adapt=2 / b_bias=0 / direct=3 / weightb=1 / open_gop=0 / weightp=2 / keyint=240 / keyint_min=23 / scenecut=40 / intra_refresh=0 / rc=2pass / mbtree=0 / bitrate=1700 / ratetol=1.0 / qcomp=0.60 / qpmin=0:0:0 / qpmax=69:69:69 / qpstep=4 / cplxblur=20.0 / qblur=0.5 / ip_ratio=1.40 / pb_ratio=1.30 / aq=1:1.00 / aq-sensitivity=10.00 / aq-factor=1.00:1.00:1.00 / aq2=0 / aq3=0
Язык : Japanese
Default : Да
Forced : Да

Аудио #1
Идентификатор : 2
Формат : AC-3
Формат/Информация : Audio Coding 3
Расширение режима : CM (complete main)
Параметр Endianness формата : Big
Идентификатор кодека : A_AC3
Продолжительность : 2 ч. 20 м.
Вид битрейта : Постоянный
Битрейт : 448 Кбит/сек
Каналы : 6 каналов
Расположение каналов : Front: L C R, Side: L R, LFE
Частота : 48,0 КГц
Битовая глубина : 16 бит
Метод сжатия : С потерями
Размер потока : 451 Мбайт (11%)
Заголовок : TRACK_01_MVO_RUS_R5
Язык : Russian
Default : Да
Forced : Да

Аудио #2
Идентификатор : 3
Формат : AC-3
Формат/Информация : Audio Coding 3
Расширение режима : CM (complete main)
Параметр Endianness формата : Big
Идентификатор кодека : A_AC3
Продолжительность : 2 ч. 20 м.
Вид битрейта : Постоянный
Битрейт : 448 Кбит/сек
Каналы : 6 каналов
Расположение каналов : Front: L C R, Side: L R, LFE
Частота : 48,0 КГц
Битовая глубина : 16 бит
Метод сжатия : С потерями
Размер потока : 451 Мбайт (11%)
Заголовок : TRACK_02_DVO_RUS_Glanc&Koroleva
Язык : Russian
Default : Нет
Forced : Нет

Аудио #3
Идентификатор : 4
Формат : AC-3
Формат/Информация : Audio Coding 3
Расширение режима : CM (complete main)
Параметр Endianness формата : Big
Идентификатор кодека : A_AC3
Продолжительность : 2 ч. 20 м.
Вид битрейта : Постоянный
Битрейт : 448 Кбит/сек
Каналы : 6 каналов
Расположение каналов : Front: L C R, Side: L R, LFE
Частота : 48,0 КГц
Битовая глубина : 16 бит
Метод сжатия : С потерями
Размер потока : 451 Мбайт (11%)
Заголовок : TRACK_03_AVO_RUS_Serbin
Язык : Russian
Default : Нет
Forced : Нет

Аудио #4
Идентификатор : 5
Формат : AC-3
Формат/Информация : Audio Coding 3
Расширение режима : CM (complete main)
Параметр Endianness формата : Big
Идентификатор кодека : A_AC3
Продолжительность : 2 ч. 20 м.
Вид битрейта : Постоянный
Битрейт : 448 Кбит/сек
Каналы : 6 каналов
Расположение каналов : Front: L C R, Side: L R, LFE
Частота : 48,0 КГц
Битовая глубина : 16 бит
Метод сжатия : С потерями
Размер потока : 451 Мбайт (11%)
Заголовок : TRACK_04_MVO_UKR_IHTEP
Язык : Ukrainian
Default : Нет
Forced : Нет

Аудио #5
Идентификатор : 6
Формат : AC-3
Формат/Информация : Audio Coding 3
Расширение режима : CM (complete main)
Параметр Endianness формата : Big
Идентификатор кодека : A_AC3
Продолжительность : 2 ч. 20 м.
Вид битрейта : Постоянный
Битрейт : 448 Кбит/сек
Каналы : 6 каналов
Расположение каналов : Front: L C R, Side: L R, LFE
Частота : 48,0 КГц
Битовая глубина : 16 бит
Метод сжатия : С потерями
Размер потока : 451 Мбайт (11%)
Заголовок : TRACK_05_ORIGINAL_JPN
Язык : Japanese
Default : Нет
Forced : Нет

Текст #1
Идентификатор : 7
Формат : UTF-8
Идентификатор кодека : S_TEXT/UTF8
Идентификатор кодека/Информация : UTF-8 Plain Text
Заголовок : TEXT_01_SUB_RUS
Язык : Russian
Default : Нет
Forced : Нет

Текст #2
Идентификатор : 8
Формат : UTF-8
Идентификатор кодека : S_TEXT/UTF8
Идентификатор кодека/Информация : UTF-8 Plain Text
Заголовок : TEXT_02_SUB_UKR
Язык : Ukrainian
Default : Нет
Forced : Нет

Текст #3
Идентификатор : 9
Формат : UTF-8
Идентификатор кодека : S_TEXT/UTF8
Идентификатор кодека/Информация : UTF-8 Plain Text
Заголовок : TEXT_03_SUB_ENG
Язык : English
Default : Нет
Forced : Нет

Меню
00:00:00.000 : en:We Soldiers Dig
00:05:12.145 : en:Kuribiyashi's Arrival
00:10:40.640 : en:Coordination for Real War
00:13:15.628 : en:Embarassments
00:17:18.328 : en:Nishi's Honest Opinion
00:23:44.381 : en:Change in Strategy
00:27:26.227 : en:A Kempeitai Among Us
00:31:59.584 : en:Your Dad Will Come Home
00:37:59.860 : en:Until We Are Dead
00:41:05.921 : en:Enemy Bombs
00:47:07.658 : en:Address to the Troops
00:51:15.697 : en:Belts From Home
00:54:13.083 : en:Emptying the Pot
00:57:00.500 : en:Enemy Landing
01:00:20.450 : en:Life and Death Orders
01:04:22.692 : en:Die with Honor
01:09:10.813 : en:Inflamed
01:11:04.176 : en:Run for Motoyama
01:13:53.220 : en:At Sword's Point
01:17:02.659 : en:Who's In Charge Here?
01:22:35.158 : en:No Reinforcements
01:24:57.801 : en:Questioning Sam
01:28:59.042 : en:Shimizu's Disgrace
01:34:18.110 : en:Farewell Party
01:37:01.023 : en:Just a Letter
01:38:59.975 : en:Nishi's Farewell
01:45:49.259 : en:Surrender with Me
01:50:14.691 : en:Let This Be a Lesson
01:55:28.922 : en:You Look Familiar
01:58:44.951 : en:Song From the Homeland
02:03:17.181 : en:Final Attack
02:07:05.242 : en:Still Japan
02:13:24.204 : en:Rediscovered Voices; End Credits
02:20:37.178 : en:

...last pass...

x264.exe: --pass 2 --bitrate 1700 --preset slow --profile high --level 4.1 --ref 9 --deblock -2:-2 --merange 32 --bframes 8 --trellis 2 --no-fast-pskip --no-dct-decimate --psy-rd 1.00:0.20 --partitions all --subme 11 --no-mbtree --keyint 240 --sar 1:1 --stats "D:Letters from Iwo Jima11111.log" --output "D:Letters from Iwo Jima11111.mkv" "D:Temp457.avs"

avs [info]: 1024x428p 1:1 @ 24000/1001 fps (cfr)
avs [info]: color matrix: undef
x264 [info]: using SAR=1/1
x264 [info]: using cpu capabilities: MMX2 SSE2Fast SSSE3 SSE4.2 AVX
x264 [info]: profile High, level 4.1
x264 [info]: cabac=1 ref=9 deblock=1:-2:-2 analyse=0x3:0x133 me=umh subme=11 psy=1 fade_compensate=0.00 psy_rd=1.00:0.20 mixed_ref=1 me_range=32 chroma_me=1 trellis=2 8x8dct=1 cqm=0 deadzone=21,11 fast_pskip=0 chroma_qp_offset=-3 threads=6 lookahead_threads=1 sliced_threads=0 nr=0 decimate=0 interlaced=0 bluray_compat=0 constrained_intra=0 fgo=0 bframes=8 b_pyramid=2 b_adapt=2 b_bias=0 direct=3 weightb=1 open_gop=0 weightp=2 keyint=240 keyint_min=23 scenecut=40 intra_refresh=0 rc=2pass mbtree=0 bitrate=1700 ratetol=1.0 qcomp=0.60 qpmin=0:0:0 qpmax=69:69:69 qpstep=4 cplxblur=20.0 qblur=0.5 ip_ratio=1.40 pb_ratio=1.30 aq=1:1.00 aq-sensitivity=10.00 aq-factor=1.00:1.00:1.00 aq2=0 aq3=0
x264 [info]: started at Sun Oct 05 22:13:25 2014

x264 [info]: frame I:1514 Avg QP:14.83 size: 63540
x264 [info]: frame P:47107 Avg QP:18.18 size: 18359
x264 [info]: frame B:153674 Avg QP:19.58 size: 5398
x264 [info]: consecutive B-frames: 2.8% 4.0% 9.8% 20.5% 21.2% 30.4% 6.7% 2.2% 2.3%
x264 [info]: mb I I16..4: 19.2% 55.9% 24.9%
x264 [info]: mb P I16..4: 1.2% 9.9% 1.7% P16..4: 31.7% 33.6% 12.6% 2.6% 0.3% skip: 6.6%
x264 [info]: mb B I16..4: 0.2% 0.9% 0.2% B16..8: 34.2% 19.4% 2.9% direct: 4.8% skip:37.4% L0:40.9% L1:45.3% BI:13.8%
x264 [info]: 8x8 transform intra:72.5% inter:47.7%
x264 [info]: direct mvs spatial:98.3% temporal:1.7%
x264 [info]: coded y,uvDC,uvAC intra: 83.0% 52.1% 24.6% inter: 22.5% 6.5% 1.7%
x264 [info]: i16 v,h,dc,p: 55% 8% 17% 20%
x264 [info]: i8 v,h,dc,ddl,ddr,vr,hd,vl,hu: 8% 8% 13% 9% 13% 12% 12% 11% 14%
x264 [info]: i4 v,h,dc,ddl,ddr,vr,hd,vl,hu: 11% 7% 12% 8% 14% 13% 13% 10% 12%
x264 [info]: i8c dc,h,v,p: 31% 42% 18% 9%
x264 [info]: Weighted P-Frames: Y:9.6% UV:3.0%
x264 [info]: ref P L0: 45.3% 11.6% 18.7% 6.4% 5.7% 3.8% 3.8% 2.0% 2.2% 0.4% 0.1%
x264 [info]: ref B L0: 74.1% 12.0% 5.5% 3.0% 2.1% 1.9% 1.0% 0.4%
x264 [info]: ref B L1: 93.0% 7.0%
x264 [info]: kb/s:1697.76

x264 [total]: encoded 202295 frames, 10.95 fps, 1697.76 kb/s, 1707.6 MB
Релиз от: | Автор рипа:



Скачать Письма.с.Иводзимы.Letters.from.Iwo.Jima.(Клинт.Иствуд).[2006.военный.драма.история.BDRip-AVC].[MVO]x2+[DVO]+[AVO]+[Sub]x3.torrent без регистрации
Золото ЗОЛОТАЯ РАЗДАЧА! СКАЧАННОЕ НЕ ЗАСЧИТЫВАЕТСЯ! Золото
Дата: Зарегистрирован   [ Тип: внутренний ] Как тут cкачать?
MAGNET ссылка
MAGNET ссылка


Скачать .torrent

20 KB

Статус: проверено DHT
Скачан: торрент - 133 раз, раздача полностью - 57 раз
Размер: 3,87 GB
Оценка:  4 (Голосов: 2)
Поблагодарили: 5
Поделиться ссылкой на эту раздачу с друзьями:
В контактеFacebookОдноклассникиTwitterLivejournalМой МирLiveinternet
 

 
Показать сообщения:    


Вы не можете начинать темы
Вы не можете отвечать на сообщения
Вы не можете редактировать свои сообщения
Вы не можете удалять свои сообщения
Вы не можете голосовать в опросах
Вы не можете прикреплять файлы к сообщениям
Вы можете скачивать файлы