Loading...
Error

Скачать Убийцы на замену / The Replacement Killers (Антуан Фукуа) [1998, боевик, триллер, драма, криминал, BDRip-AVC] [Расширенная версия / Extended Cut] [VO] (Е. Гаевский) торрент без регистрации

 
Статистика раздачи
Размер:  2,38 GB   |    Скачан:  155 раз
Сидов:  1  [  0 KB/s  ]  
 
Автор Сообщение

leon030982

[] 


Убийцы на замену / The Replacement Killers





Год выпуска: 1998
Выпущено: США
Жанр: Экшн, криминал, триллер
Продолжительность: 01:36:07
Перевод: Одноголосный (закадровый) [Евгений Гаевский]
Субтитры: английские
Оригинальная дорожка: Английский
Навигация по главам: Есть

Режиссер: Антуан Фукуа

В ролях: Юнь-Фат Чоу, Мира Сорвино, Майкл Рукер, Кеннет Цан, Юрген Прохнов, Тиль Швайгер

Описание: Профессиональный киллер Джон Ли получает новое задание - убить семилетнего мальчика, сына полицейского, застрелившего сына мистера Вея (работодателя Джона). Но в решающий момент он не смог нажать на курок. А мафия не прощает ошибок. На Джона объявлена охота. О своей безопасности Ли может позаботиться, но под угрозой оказывается и его семья, проживающая в Китае. Он обращается за фальшивым паспортом к Мег, и девушка сама того не желая оказывается участницей всех событий. Теперь у них только один выход - перейти в наступление.



Качество: BDRip-AVC
Формат: MKV
Видео кодек: AVC
Аудио кодек: AC3
Видео: V_MPEG4/ISO/AVC, 1024x426, 2913 Кбит/сек, 23,976 кадр/сек, 0.289Bits /(Pixel*Frame)
Аудио #1: AC-3, 448 Кбит/сек, 6 канала(ов), 48,0 КГц [RUS]
Аудио #2: AC-3, 384 Кбит/сек, 6 канала(ов), 48,0 КГц [ENG]

Цитата:

озвучка Евгения Гаевского по переводу Артёма Завгороднего (zav25). Переведена Extended Cut версия.
Работа со звуком DREADG.

Код:

General
Unique ID                        : 172124800246172615923530540274360414451 (0x817E07DBBB1C97D9AB3B6977043670F3)
Complete name                    : E:\INTERNET\The Replacement Killers_Gaevskiy.mkv
Format                           : Matroska
File size                        : 2.38 GiB
Duration                         : 1h 36mn
Overall bit rate                 : 3 746 Kbps
Movie name                       : The Replacement Killers [Extended Cut] [1998]
Encoded date                     : UTC 2014-10-02 18:59:13
Writing application              : mkvmerge v7.0.0 ('Where We Going') 32bit built on Jun  9 2014 15:08:34
Writing library                  : libebml v1.3.0 + libmatroska v1.4.1

Video
ID                               : 1
Format                           : AVC
Format/Info                      : Advanced Video Codec
Format profile                   : High@L4.1
Format settings, CABAC           : Yes
Format settings, ReFrames        : 9 frames
Codec ID                         : V_MPEG4/ISO/AVC
Duration                         : 1h 36mn
Bit rate                         : 2 913 Kbps
Width                            : 1 024 pixels
Height                           : 426 pixels
Display aspect ratio             : 2.40:1
Frame rate                       : 23.976 fps
Color space                      : YUV
Chroma subsampling               : 4:2:0
Bit depth                        : 8 bits
Scan type                        : Progressive
Bits/(Pixel*Frame)               : 0.289
Stream size                      : 1.77 GiB (75%)
Writing library                  : x264 core 133 r2334 a3ac64b
Encoding settings                : cabac=1 / ref=9 / deblock=1:-3:-3 / analyse=0x3:0x113 / me=umh / subme=10 / psy=1 / psy_rd=1.00:0.20 / mixed_ref=1 / me_range=32 / chroma_me=1 / trellis=2 / 8x8dct=1 / cqm=0 / deadzone=21,11 / fast_pskip=0 / chroma_qp_offset=-3 / threads=3 / lookahead_threads=1 / sliced_threads=0 / nr=0 / decimate=0 / interlaced=0 / bluray_compat=0 / constrained_intra=0 / bframes=12 / b_pyramid=2 / b_adapt=2 / b_bias=0 / direct=3 / weightb=1 / open_gop=0 / weightp=2 / keyint=240 / keyint_min=23 / scenecut=40 / intra_refresh=0 / rc_lookahead=40 / rc=2pass / mbtree=0 / bitrate=2713 / ratetol=1.0 / qcomp=0.60 / qpmin=0 / qpmax=69 / qpstep=4 / cplxblur=20.0 / qblur=0.5 / vbv_maxrate=50000 / vbv_bufsize=50000 / nal_hrd=none / ip_ratio=1.40 / pb_ratio=1.30 / aq=1:1.00
Language                         : English

Audio #1
ID                               : 2
Format                           : AC-3
Format/Info                      : Audio Coding 3
Mode extension                   : CM (complete main)
Codec ID                         : A_AC3
Duration                         : 1h 36mn
Bit rate mode                    : Constant
Bit rate                         : 448 Kbps
Channel(s)                       : 6 channels
Channel positions                : Front: L C R, Side: L R, LFE
Sampling rate                    : 48.0 KHz
Bit depth                        : 16 bits
Compression mode                 : Lossy
Stream size                      : 308 MiB (13%)
Title                            : Gaevskiy
Language                         : Russian

Audio #2
ID                               : 3
Format                           : AC-3
Format/Info                      : Audio Coding 3
Mode extension                   : CM (complete main)
Codec ID                         : A_AC3
Duration                         : 1h 36mn
Bit rate mode                    : Constant
Bit rate                         : 384 Kbps
Channel(s)                       : 6 channels
Channel positions                : Front: L C R, Side: L R, LFE
Sampling rate                    : 48.0 KHz
Bit depth                        : 16 bits
Compression mode                 : Lossy
Stream size                      : 264 MiB (11%)
Title                            : AC3 5.1 @ 384 kbps
Language                         : English

Text
ID                               : 4
Format                           : UTF-8
Codec ID                         : S_TEXT/UTF8
Codec ID/Info                    : UTF-8 Plain Text
Language                         : English

Menu
00:00:00.000                     : en:1. Start
00:03:03.549                     : en:2. A Bloody Bust
00:07:18.312                     : en:3. Unwelcome Respects
00:09:12.654                     : en:4. One Final Assignment
00:12:33.255                     : en:5. A Small Dilemma
00:14:50.666                     : en:6. "I Went Against Mr. Wei"
00:17:13.093                     : en:7. The Woman to See
00:20:06.612                     : en:8. Forging a Partnership
00:27:10.882                     : en:9. In Over Her Head
00:31:05.585                     : en:10. Walking Bull's-Eyes
00:36:17.519                     : en:11. Car Wash Chaos
00:44:57.075                     : en:12. The Replacements
00:46:52.420                     : en:13. Setting Things Straight
00:51:36.270                     : en:14. Running Out of Time
00:52:52.498                     : en:15. The General's Son
00:54:51.855                     : en:16. Arcade Assassins
01:01:13.999                     : en:17. Execrable Eavesdroppers
01:02:23.207                     : en:18. Gift From a Dying Man
01:05:24.750                     : en:19. Can't Stand Aside
01:09:17.447                     : en:20. Friends in Low Places
01:12:45.069                     : en:21. The Time and the Place
01:14:33.393                     : en:22. Feature Firefight
01:16:58.828                     : en:23. Daddy's Not Happy
01:18:31.105                     : en:24. A Shared Problem
01:20:31.465                     : en:25. Alleyway Assault
01:24:59.267                     : en:26. Positions Reversed
01:27:30.720                     : en:27. Face to Face
01:30:50.318                     : en:28. A Going-Away Present
01:32:50.915                     : en:29. End Credits
01:36:07.000                     : en:30. End






Скачать Убийцы.на.замену.The.Replacement.Killers.(Антуан.Фукуа).[1998.боевик.триллер.драма.криминал.BDRip-AVC].[Расширенная.версия.Extended.Cut].[VO].(Е.Гаевский).torrent без регистрации
Золото ЗОЛОТАЯ РАЗДАЧА! СКАЧАННОЕ НЕ ЗАСЧИТЫВАЕТСЯ! Золото
Дата: Зарегистрирован   [ Тип: внутренний ] Как тут cкачать?
MAGNET ссылка
MAGNET ссылка


Скачать .torrent

12 KB

Статус: проверено DHT
Скачан: торрент - 155 раз, раздача полностью - 3 раз
Размер: 2,38 GB
Оценка:  5 (Голосов: 1)
Поблагодарили: 1
Поделиться ссылкой на эту раздачу с друзьями:
В контактеFacebookОдноклассникиTwitterLivejournalМой МирLiveinternet
 

 
Показать сообщения:    


Вы не можете начинать темы
Вы не можете отвечать на сообщения
Вы не можете редактировать свои сообщения
Вы не можете удалять свои сообщения
Вы не можете голосовать в опросах
Вы не можете прикреплять файлы к сообщениям
Вы можете скачивать файлы