Loading...
Error

Скачать Арн: Рыцарь-тамплиер / Arn: Tempelriddaren (Петер Флинт) [2007, исторический, приключения, драма, экранизация, BDRip-AVC] [MVO] торрент без регистрации

 
Статистика раздачи
Размер:  2,59 GB   |    Скачан:  107 раз
Сидов:  1  [  0 KB/s  ]  
 
Автор Сообщение

Marsianka

[] 

Арн: Рыцарь-тамплиер / Arn: Tempelriddaren (2007) BDRip-AVC | iPad | P
«In a Time of War and Betrayal, a Hero Will Rise»

Год выпуска: 2007
Производство: Германия, Дания, Швеция, Финляндия, Великобритания, Норвегия / AMC Pictures, Arion Communications Ltd., Dagsljus Filmequipment
Жанр: исторический, приключения, драма, экранизация

Режиссер: Петер Флинт
В ролях: Йоаким Наттерквист, София Хелин, Стеллан Скарсгард, Микаэл Нюквист, Морган Аллинг, Свен-Бертиль Таубе, Биби Андерссон, Густаф Скарсгард, Саймон Кэллоу, Венсан Перес, Юлия Дуфвениус, Сванте Мартин, Ёрген Лангхелле, Томас В. Габриэльссон, Лотта Ларссон

Описание:
Арн, сын высокопоставленного шведского дворянина, заканчивает свое монастырское обучение и, в наказание за свою запретную любовь, отправляется в Священные Земли в качестве рыцаря-тамплиера. Там ему суждено принять участие в битве при Хатине и других событиях, связанных с тяжёлыми временами Иерусалимского королевства. Экранизация произведения Яна Гиллоу.




Продолжительность: 02:18:25
Перевод: Профессиональный (многоголосый закадровый) [Студия "Кравец"]
Cубтитры: Отсутствуют

Качество: BDRip [576p]
Видео: MPEG-4 AVC/H.264, 1024x436 (2.35:1), 2 500 kbps, 24.000 fps
Аудио 1: Русский/Профессиональный (многоголосый закадровый), AAC / 2.0 / 170 Kbps / 48.0 KHz

Sort Name: Arn: Tempelriddaren
XID: Apple:vendor_id:2007-266758
Content ID: 266758
Copyright: AMC Pictures, Arion Communications Ltd., Dagsljus Filmequipment
ScreenWriters: Ганс Гуннарссон, Ян Гиллоу
Producers: Вальдемар Бергендаль, Хеге Аструп, Питер Бенгтссон
Director: Петер Флинт
Cast: Joakim Nätterqvist (Arn Magnusson), Sofia Helin (Cecilia Algotsdotter), Stellan Skarsgård (Birger Brosa), Michael Nyqvist (Magnus Folkesson), Mirja Turestedt (Sigrid), Morgan Alling (Eskil Magnusson), Sven-Bertil Taube (Bishop Bengt), Bibi Andersson (Mother Rikissa), Gustaf Skarsgård (Knut Eriksson), Simon Callow (Father Henry), Vincent Pérez (Brother Guilbert), Thomas W. Gabrielsson (Emund Ulvbane)
Rating: R
Long Deion: Арн, сын высокопоставленного шведского дворянина, заканчивает свое монастырское обучение и, в наказание за свою запретную любовь, отправляется в Священные Земли в качестве рыцаря-тамплиера. Там ему суждено принять участие в битве при Хатине и других событиях, связанных с тяжёлыми временами Иерусалимского королевства…
Deion: Арн, сын высокопоставленного шведского дворянина, заканчивает свое монастырское обучение и, в наказание за свою запретную любовь, отправляется в Священные Земли в качестве рыцаря-тамплиера. Там ему суждено принять участие в битве при Хатине и других
Release Date: 2007-12-17T08:00:00Z
Genre: Action & Adventure
Artist: Peter Flinth
Name: Арн: Рыцарь-тамплиер
Comments: «In a Time of War and Betrayal, a Hero Will Rise»

General
Complete name : C:CREATE264mod1outArn-Tempelriddaren.2007.BDRip.576p.P.m4v
Format : MPEG-4
Codec ID : M4V
File size : 2.59 GiB
Duration : 2h 19mn
Overall bit rate mode : Variable
Overall bit rate : 2 660 Kbps
Movie name : Арн: Рыцарь-тамплиер
Performer : Peter Flinth
Genre : Action & Adventure
ContentType : Short Film
Deion : Арн, сын высокопоставленного шведского дворянина, заканчивает свое монастырское обучение и, в наказание за свою запретную любовь, отправляется в Священные Земли в качестве рыцаря-тамплиера. Там ему суждено принять участие в битве при Хатине и других
Recorded date : UTC 2007-12-17 08:00:00
Encoded date : UTC 2014-10-05 18:55:28
Tagged date : UTC 2014-10-05 19:06:59
Copyright : AMC Pictures, Arion Communications Ltd., Dagsljus Filmequipment
Cover : Yes
Comment : «In a Time of War and Betrayal, a Hero Will Rise»
ContentRating : mpaa|R|400|

Title/Sort : Arn: Tempelriddaren
LongDeion : Арн, сын высокопоставленного шведского дворянина, заканчивает свое монастырское обучение и, в наказание за свою запретную любовь, отправляется в Священные Земли в качестве рыцаря-тамплиера. Там ему суждено принять участие в битве при Хатине и других событиях, связанных с тяжёлыми временами Иерусалимского королевства…
AppleStoreCatalogID : 266758
Vendor : Apple:vendor_id:2007-266758

Video
ID : 1
Format : AVC
Format/Info : Advanced Video Codec
Format profile : High@L4.1
Format settings, CABAC : Yes
Format settings, ReFrames : 9 frames
Codec ID : avc1
Codec ID/Info : Advanced Video Coding
Duration : 2h 18mn
Bit rate : 2 492 Kbps
Maximum bit rate : 19.9 Mbps
Width : 1 024 pixels
Height : 436 pixels
Display aspect ratio : 2.35:1
Frame rate mode : Constant
Frame rate : 24.000 fps
Color space : YUV
Chroma subsampling : 4:2:0
Bit depth : 8 bits
Scan type : Progressive
Bits/(Pixel*Frame) : 0.233
Stream size : 2.41 GiB (93%)
Language : English
Encoded date : UTC 2014-10-05 18:55:28
Tagged date : UTC 2014-10-05 18:55:56
Color primaries : BT.709
Transfer characteristics : BT.709
Matrix coefficients : BT.709

Audio
ID : 2
Format : AAC
Format/Info : Advanced Audio Codec
Format profile : LC
Codec ID : 40
Duration : 2h 19mn
Bit rate mode : Variable
Bit rate : 175 Kbps
Maximum bit rate : 206 Kbps
Channel(s) : 2 channels
Channel positions : Front: L R
Sampling rate : 48.0 KHz
Compression mode : Lossy
Stream size : 174 MiB (7%)
Title : AAC MVO [Kravetc]
Language : Russian
Encoded date : UTC 2014-10-05 18:55:47
Tagged date : UTC 2014-10-05 18:55:56

x264 [info]: frame I:1736 Avg QP:14.35 size: 92939
x264 [info]: frame P:51188 Avg QP:19.26 size: 29794
x264 [info]: frame B:146418 Avg QP:22.05 size: 6150
x264 [info]: consecutive B-frames: 4.0% 4.8% 16.2% 20.6% 21.4% 27.4% 3.7% 0.9% 0.6% 0.3% 0.1% 0.0% 0.0%
x264 [info]: mb I I16..4: 10.7% 56.9% 32.4%
x264 [info]: mb P I16..4: 0.9% 9.5% 3.3% P16..4: 25.9% 31.3% 15.4% 5.7% 1.6% skip: 6.3%
x264 [info]: mb B I16..4: 0.1% 1.1% 0.5% B16..8: 35.5% 19.7% 2.7% direct: 4.0% skip:36.4% L0:36.9% L1:43.2% BI:19.8%
x264 [info]: 8x8 transform intra:66.4% inter:48.5%
x264 [info]: coded y,uvDC,uvAC intra: 86.0% 90.8% 71.9% inter: 19.5% 22.7% 13.1%
x264 [info]: i16 v,h,dc,p: 9% 16% 9% 65%
x264 [info]: i8 v,h,dc,ddl,ddr,vr,hd,vl,hu: 15% 10% 6% 8% 11% 13% 11% 13% 13%
x264 [info]: i4 v,h,dc,ddl,ddr,vr,hd,vl,hu: 33% 9% 6% 6% 11% 11% 9% 8% 8%
x264 [info]: i8c dc,h,v,p: 39% 23% 19% 19%
x264 [info]: Weighted P-Frames: Y:7.2% UV:4.1%
x264 [info]: ref P L0: 63.0% 12.0% 11.5% 4.5% 3.0% 2.2% 1.7% 1.0% 0.9% 0.2% 0.0%
x264 [info]: ref B L0: 87.5% 6.2% 2.9% 1.2% 0.8% 0.6% 0.5% 0.2%
x264 [info]: ref B L1: 94.7% 5.3%
x264 [info]: kb/s:2491.61



Скачать Арн.Рыцарь-тамплиер.Arn.Tempelriddaren.(Петер.Флинт).[2007.исторический.приключения.драма.экранизация.BDRip-AVC].[MVO].torrent без регистрации
Золото ЗОЛОТАЯ РАЗДАЧА! СКАЧАННОЕ НЕ ЗАСЧИТЫВАЕТСЯ! Золото
Дата: Зарегистрирован   [ Тип: внутренний ] Как тут cкачать?
MAGNET ссылка
MAGNET ссылка


Скачать .torrent

13 KB

Статус: проверено DHT
Скачан: торрент - 107 раз, раздача полностью - 6 раз
Размер: 2,59 GB
Оценка:  - (Голосов: 0)
Поблагодарили: 3
Поделиться ссылкой на эту раздачу с друзьями:
В контактеFacebookОдноклассникиTwitterLivejournalМой МирLiveinternet
 

 
Показать сообщения:    


Вы не можете начинать темы
Вы не можете отвечать на сообщения
Вы не можете редактировать свои сообщения
Вы не можете удалять свои сообщения
Вы не можете голосовать в опросах
Вы не можете прикреплять файлы к сообщениям
Вы можете скачивать файлы