Loading...
Error

Скачать Арн: Объединенное королевство / Arn: Riket vid vägens slut (Петер Флинт) [2008, боевик, драма, мелодрама, приключения, военный, история, BDRip-AVC] [MVO] торрент без регистрации

 
Статистика раздачи
Размер:  2,42 GB   |    Скачан:  116 раз
Сидов:  1  [  0 KB/s  ]  
 
Автор Сообщение

Marsianka

[] 

Арн: Объединенное королевство / Arn: Riket vid vägens slut (2008) BDRip-AVC | iPad | P

Год выпуска: 2008
Производство: Германия, Дания, Швеция, Финляндия, Великобритания, Норвегия / AMC Pictures, Arion Communications Ltd., Dagsljus Filmequipment
Жанр: боевик, драма, мелодрама, приключения, военный, история

Режиссер: Петер Флинт
В ролях: Йоаким Наттерквист, Морган Аллинг, Биби Андерссон, Джой Андерссон, Томас Больме, Николас Болтон, Якоб Седергрен, Анника Халлин, София Хелин, Юэль Киннаман, Каллум Митчел, Горан Рагнерстам, Дрисс Рухе, Билл Скарсгард, Густаф Скарсгард, Вальтер Скарсгард, Милинд Соман, Чемс-Эддин Зинун

Описание:
Второй фильм о вымышленном шведском рыцаре тамплиеров Арне Магнассоне. История его жизни развивается в Святой земле во времена Саладина, битвы при Хатине и других событий, связанных с тяжёлыми временами Иерусалимского королевства. После всех трудностей, сомнений и испытаний, Арн оставляет Иерусалим совсем другим человеком, возвращается в Швецию измученную феодальными распрями, к своей семье погрязшей в этих дрязгах и к любви своей юности, Сесилии, с которой они были разлучены 20 лет. Экранизация произведения Яна Гиллоу.




Продолжительность: 02:07:36
Перевод: Профессиональный (многоголосый закадровый)
Cубтитры: Отсутствуют

Качество: BDRip [576p]
Видео: MPEG-4 AVC/H.264, 1024x436 (2.35:1), 2 500 kbps, 24.000 fps
Аудио 1: Русский/Профессиональный (многоголосый закадровый), AAC / 2.0 / 175 Kbps / 48.0 KHz

Sort Name: Arn: Riket vid vägens slut
XID: Apple:vendor_id:2008-277390
Content ID: 277390
Copyright: AMC Pictures, Arion Communications Ltd., Dagsljus Filmequipment
ScreenWriters: Ганс Гуннарссон, Ян Гиллоу
Producers: Вальдемар Бергендаль, Алистэр Маклин-Кларк, Ричард Георг Энгстрем
Director: Петер Флинт
Cast: Joakim Nätterqvist (Arn Magnusson), Morgan Alling (Eskil Magnusson), Bibi Andersson (Mother Rikissa), Stellan Skarsgård (Birger Brosa), Bibi Andersson (Mother Rikkissa), Nicholas Boulton (Gerard De Ridefort), Joel Kinnaman (Sverker Karlsson), Jakob Cedergren (Ebbe Sunesson)
Rating: PG-13
Long Deion: Второй фильм о вымышленном шведском рыцаре тамплиеров Арне Магнассоне. История его жизни развивается в Святой земле во времена Саладина, битвы при Хатине и других событий, связанных с тяжёлыми временами Иерусалимского королевства. После всех трудностей, сомнений и испытаний, Арн оставляет Иерусалим совсем другим человеком, возвращается в Швецию измученную феодальными распрями, к своей семье погрязшей в этих дрязгах и к любви своей юности, Сесилии, с которой они были разлучены 20 лет…
Deion: Второй фильм о вымышленном шведском рыцаре тамплиеров Арне Магнассоне. История его жизни развивается в Святой земле во времена Саладина, битвы при Хатине и других событий, связанных с тяжёлыми временами Иерусалимского королевства.
Release Date: 2008-08-22T08:00:00Z
Genre: Action & Adventure
Artist: Peter Flinth
Name: Арн: Объединенное королевство

General
Complete name : C:CREATE264mod1outArn-Riket.vid.vagens.slut.2008.BDRip.576p.P.NNM.m4v
Format : MPEG-4
Codec ID : M4V
File size : 2.42 GiB
Duration : 2h 7mn
Overall bit rate mode : Variable
Overall bit rate : 2 720 Kbps
Movie name : Арн: Объединенное королевство
Performer : Peter Flinth
Genre : Action & Adventure
ContentType : Short Film
Deion : Второй фильм о вымышленном шведском рыцаре тамплиеров Арне Магнассоне. История его жизни развивается в Святой земле во времена Саладина, битвы при Хатине и других событий, связанных с тяжёлыми временами Иерусалимского королевства.
Recorded date : UTC 2008-08-22 08:00:00
Encoded date : UTC 2014-10-07 18:45:07
Tagged date : UTC 2014-10-07 18:55:14
Copyright : AMC Pictures, Arion Communications Ltd., Dagsljus Filmequipment
Cover : Yes
ContentRating : mpaa|PG-13|300|

Title/Sort : Arn: Riket vid vägens slut
LongDeion : Второй фильм о вымышленном шведском рыцаре тамплиеров Арне Магнассоне. История его жизни развивается в Святой земле во времена Саладина, битвы при Хатине и других событий, связанных с тяжёлыми временами Иерусалимского королевства. После всех трудностей, сомнений и испытаний, Арн оставляет Иерусалим совсем другим человеком, возвращается в Швецию измученную феодальными распрями, к своей семье погрязшей в этих дрязгах и к любви своей юности, Сесилии, с которой они были разлучены 20 лет…
AppleStoreCatalogID : 277390
Vendor : Apple:vendor_id:2008-277390

Video
ID : 1
Format : AVC
Format/Info : Advanced Video Codec
Format profile : High@L4.1
Format settings, CABAC : Yes
Format settings, ReFrames : 9 frames
Codec ID : avc1
Codec ID/Info : Advanced Video Coding
Duration : 2h 7mn
Bit rate : 2 535 Kbps
Maximum bit rate : 16.5 Mbps
Width : 1 024 pixels
Height : 436 pixels
Display aspect ratio : 2.35:1
Frame rate mode : Constant
Frame rate : 24.000 fps
Color space : YUV
Chroma subsampling : 4:2:0
Bit depth : 8 bits
Scan type : Progressive
Bits/(Pixel*Frame) : 0.237
Stream size : 2.26 GiB (93%)
Language : English
Encoded date : UTC 2014-10-07 18:45:07
Tagged date : UTC 2014-10-07 18:45:32
Color primaries : BT.709
Transfer characteristics : BT.709
Matrix coefficients : BT.709

Audio
ID : 2
Format : AAC
Format/Info : Advanced Audio Codec
Format profile : LC
Codec ID : 40
Duration : 2h 7mn
Bit rate mode : Variable
Bit rate : 175 Kbps
Maximum bit rate : 210 Kbps
Channel(s) : 2 channels
Channel positions : Front: L R
Sampling rate : 48.0 KHz
Compression mode : Lossy
Stream size : 160 MiB (6%)
Title : MVO
Language : Russian
Encoded date : UTC 2014-10-07 18:45:25
Tagged date : UTC 2014-10-07 18:45:32

x264 [info]: frame I:1436 Avg QP:14.56 size: 89322
x264 [info]: frame P:45337 Avg QP:19.31 size: 29966
x264 [info]: frame B:136994 Avg QP:21.97 size: 6859
x264 [info]: consecutive B-frames: 3.3% 4.0% 15.4% 20.3% 21.1% 28.8% 4.8% 0.8% 0.6% 0.4% 0.2% 0.1% 0.2%
x264 [info]: mb I I16..4: 11.7% 57.1% 31.2%
x264 [info]: mb P I16..4: 1.1% 9.7% 3.4% P16..4: 26.0% 31.8% 14.4% 5.3% 1.4% skip: 7.0%
x264 [info]: mb B I16..4: 0.1% 1.3% 0.6% B16..8: 35.1% 19.6% 2.8% direct: 4.0% skip:36.5% L0:37.1% L1:43.6% BI:19.2%
x264 [info]: 8x8 transform intra:65.9% inter:50.5%
x264 [info]: coded y,uvDC,uvAC intra: 84.7% 90.3% 70.5% inter: 19.2% 22.9% 12.6%
x264 [info]: i16 v,h,dc,p: 10% 23% 7% 60%
x264 [info]: i8 v,h,dc,ddl,ddr,vr,hd,vl,hu: 14% 11% 6% 8% 11% 12% 12% 13% 13%
x264 [info]: i4 v,h,dc,ddl,ddr,vr,hd,vl,hu: 32% 10% 5% 6% 10% 10% 9% 8% 9%
x264 [info]: i8c dc,h,v,p: 37% 24% 20% 19%
x264 [info]: Weighted P-Frames: Y:6.5% UV:3.8%
x264 [info]: ref P L0: 61.6% 11.3% 12.4% 4.9% 3.3% 2.4% 1.9% 1.1% 1.0% 0.2% 0.0%
x264 [info]: ref B L0: 87.0% 6.4% 3.0% 1.3% 0.9% 0.7% 0.5% 0.2%
x264 [info]: ref B L1: 94.6% 5.4%
x264 [info]: kb/s:2535.10



Скачать Арн.Объединенное.королевство.Arn.Riket.vid.vägens.slut.(Петер.Флинт).[2008.боевик.драма.мелодрама.приключения.военный.история.BDRip-AVC].[MVO].torrent без регистрации
Золото ЗОЛОТАЯ РАЗДАЧА! СКАЧАННОЕ НЕ ЗАСЧИТЫВАЕТСЯ! Золото
Дата: Зарегистрирован   [ Тип: внутренний ] Как тут cкачать?
MAGNET ссылка
MAGNET ссылка


Скачать .torrent

13 KB

Статус: проверено DHT
Скачан: торрент - 116 раз, раздача полностью - 16 раз
Размер: 2,42 GB
Оценка:  - (Голосов: 0)
Поблагодарили: 3
Поделиться ссылкой на эту раздачу с друзьями:
В контактеFacebookОдноклассникиTwitterLivejournalМой МирLiveinternet
 

 
Показать сообщения:    


Вы не можете начинать темы
Вы не можете отвечать на сообщения
Вы не можете редактировать свои сообщения
Вы не можете удалять свои сообщения
Вы не можете голосовать в опросах
Вы не можете прикреплять файлы к сообщениям
Вы можете скачивать файлы