Loading...
Error

Скачать Бронсон / Bronson (Николас Виндинг Рефн) [2008, боевик, триллер, драма, криминал, биография, BDRip-AVC] [DVO]+[Оригинал] торрент без регистрации

 
Статистика раздачи
Размер:  2,46 GB   |    Скачан:  125 раз
Сидов:  1  [  0 KB/s  ]  
 
Автор Сообщение

Marsianka

[] 

Бронсон / Bronson (2008) BDRip-AVC 576p | iPad | P2
«The Man. The Myth. The Celebrity»

Год выпуска: 2008
Производство: Великобритания / © 2008 Vertigo Films Ltd.
Жанр: боевик, триллер, драма, криминал, биография

Режиссер: Николас Виндинг Рефн
В ролях: Том Харди, Мэтт Кинг, Джеймс Лэнс, Аманда Бертон, Джонатан Филлипс, Келли Адамс, Луинг Эндрюс, Кэти Баркер, Гордон Браун, Марк Девенпорт

Описание:
История жизни британского заключённого Чарльза Бронсона, урождённого Майкла Гордона Питерсона из благополучной британской семьи среднего класса. Бронсон провёл «за решёткой» почти 40 лет, в одиночной камере за различные нарушения, и характеризуется как самый опасный британский преступник.




Продолжительность: 01:32:28
Перевод: Профессиональный (двухголосый закадровый) [НТВ+]
Cубтитры: Отсутствуют

Качество: BDRip [576p]
Видео: MPEG-4 AVC/H.264, 1024x556 (1.85:1), 3 500 kbps, 24.000 fps
Аудио 1: Русский/Профессиональный (двухголосый закадровый) [НТВ+], AAC / 2.0 / 144 Kbps / 48.0 KHz
Kbps / 48.0 KHz
Аудио 2: Английский/Оригинальный, AAC / 2.0 / 132 Kbps / 48.0 KHz


Sort Name: Bronson
XID: Apple:vendor_id:2008-438272
Content ID: 714802742
Copyright: © 2008 Vertigo Films Ltd.
ScreenWriters: Брок Норман Брок, Николас Виндинг Рефн
Producers: Дэниэл Хансфорд, Руперт Престон, Сюзанн Ализарт
Director: Николас Виндинг Рефн
Cast: Том Харди, Мэтт Кинг, Джеймс Лэнс, Аманда Бертон, Джонатан Филлипс, Келли Адамс, Луинг Эндрюс, Кэти Баркер, Гордон Браун, Марк Девенпорт
Rating: 18
Long Deion: История жизни британского заключённого Чарльза Бронсона, урождённого Майкла Гордона Питерсона из благополучной британской семьи среднего класса. Бронсон провёл "за решёткой" в одиночной камере за различные нарушения почти 40 лет, и его характеризуют как самого опасного британского преступника.
Deion: История жизни британского заключённого Чарльза Бронсона, урождённого Майкла Гордона Питерсона из благополучной британской семьи среднего класса. Бронсон провёл "за решёткой" в одиночной камере за различные нарушения почти 40 лет, и его характеризуют
Release Date: 2009-03-13T07:00:00Z
Genre: Independent
Artist: NIcholas Winding Refn
Name: Bronson
Comments: «The Man. The Myth. The Celebrity»

General
Complete name : C:DownloadsBronson.2008.BDRip.576p.P2.m4v
Format : MPEG-4
Codec ID : M4V
File size : 2.46 GiB
Duration : 1h 32mn
Overall bit rate mode : Variable
Overall bit rate : 3 802 Kbps
Movie name : Бронсон
Performer : NIcholas Winding Refn
Genre : Independent
ContentType : Short Film
Deion : История жизни британского заключённого Чарльза Бронсона, урождённого Майкла Гордона Питерсона из благополучной британской семьи среднего класса. Бронсон провёл "за решёткой" в одиночной камере за различные нарушения почти 40 лет
Recorded date : UTC 2009-03-13 07:00:00
Encoded date : UTC 2014-10-07 17:06:03
Tagged date : UTC 2014-10-07 17:11:01
Copyright : © 2008 Vertigo Films Ltd.
Cover : Yes
Comment : «The Man. The Myth. The Celebrity»
ContentRating : uk-movie|18|400|

Title/Sort : Bronson
LongDeion : История жизни британского заключённого Чарльза Бронсона, урождённого Майкла Гордона Питерсона из благополучной британской семьи среднего класса. Бронсон провёл "за решёткой" в одиночной камере за различные нарушения почти 40 лет, и его характеризуют как самого опасного британского преступника.
AppleStoreCatalogID : 714802742
Vendor : Apple:vendor_id:2008-438272

Video
ID : 1
Format : AVC
Format/Info : Advanced Video Codec
Format profile : High@L4.1
Format settings, CABAC : Yes
Format settings, ReFrames : 9 frames
Codec ID : avc1
Codec ID/Info : Advanced Video Coding
Duration : 1h 32mn
Bit rate : 3 513 Kbps
Maximum bit rate : 16.6 Mbps
Width : 1 024 pixels
Height : 556 pixels
Display aspect ratio : 1.85:1
Frame rate mode : Constant
Frame rate : 24.000 fps
Color space : YUV
Chroma subsampling : 4:2:0
Bit depth : 8 bits
Scan type : Progressive
Bits/(Pixel*Frame) : 0.257
Stream size : 2.27 GiB (92%)
Language : English
Encoded date : UTC 2014-10-07 17:06:03
Tagged date : UTC 2014-10-07 17:06:22
Matrix coefficients : BT.709

Audio #1
ID : 2
Format : AAC
Format/Info : Advanced Audio Codec
Format profile : LC
Codec ID : 40
Duration : 1h 32mn
Bit rate mode : Variable
Bit rate : 144 Kbps
Maximum bit rate : 201 Kbps
Channel(s) : 2 channels
Channel positions : Front: L R
Sampling rate : 48.0 KHz
Compression mode : Lossy
Stream size : 96.5 MiB (4%)
Title : AAC DVO [HTB_]
Language : Russian
Encoded date : UTC 2014-10-07 17:06:13
Tagged date : UTC 2014-10-07 17:06:22

Audio #2
ID : 3
Format : AAC
Format/Info : Advanced Audio Codec
Format profile : LC
Codec ID : 40
Duration : 1h 32mn
Bit rate mode : Variable
Bit rate : 132 Kbps
Maximum bit rate : 190 Kbps
Channel(s) : 2 channels
Channel positions : Front: L R
Sampling rate : 48.0 KHz
Compression mode : Lossy
Stream size : 87.6 MiB (3%)
Title : AAC original
Language : English
Encoded date : UTC 2014-10-07 17:06:18
Tagged date : UTC 2014-10-07 17:06:22

x264 [info]: frame I:759 Avg QP:14.08 size:119197
x264 [info]: frame P:27062 Avg QP:17.53 size: 41866
x264 [info]: frame B:105353 Avg QP:19.56 size: 11513
x264 [info]: consecutive B-frames: 1.2% 1.5% 9.0% 12.1% 22.2% 38.4% 9.6% 2.0% 2.3% 1.4% 0.1% 0.0% 0.1% 0.1% 0.0%
x264 [info]: mb I I16..4: 13.1% 57.9% 29.0%
x264 [info]: mb P I16..4: 0.5% 7.3% 1.7% P16..4: 24.9% 34.9% 19.1% 5.6% 1.2% skip: 4.8%
x264 [info]: mb B I16..4: 0.0% 1.1% 0.1% B16..8: 33.4% 20.5% 3.3% direct: 6.6% skip:34.9% L0:37.0% L1:38.2% BI:24.8%
x264 [info]: 8x8 transform intra:76.8% inter:39.3%
x264 [info]: coded y,uvDC,uvAC intra: 97.3% 91.5% 85.5% inter: 25.5% 27.1% 18.4%
x264 [info]: i16 v,h,dc,p: 12% 9% 29% 50%
x264 [info]: i8 v,h,dc,ddl,ddr,vr,hd,vl,hu: 11% 10% 12% 9% 12% 11% 11% 11% 13%
x264 [info]: i4 v,h,dc,ddl,ddr,vr,hd,vl,hu: 17% 10% 6% 9% 13% 12% 12% 11% 12%
x264 [info]: i8c dc,h,v,p: 54% 16% 15% 16%
x264 [info]: Weighted P-Frames: Y:5.5% UV:3.2%
x264 [info]: ref P L0: 47.3% 7.8% 16.2% 7.7% 6.3% 5.1% 4.5% 2.6% 2.4% 0.1% 0.0%
x264 [info]: ref B L0: 80.4% 7.3% 4.8% 2.3% 1.8% 1.6% 1.3% 0.5%
x264 [info]: ref B L1: 93.9% 6.1%
x264 [info]: kb/s:3512.59



Скачать Бронсон.Bronson.(Николас.Виндинг.Рефн).[2008.боевик.триллер.драма.криминал.биография.BDRip-AVC].[DVO]+[Оригинал].torrent без регистрации
Золото ЗОЛОТАЯ РАЗДАЧА! СКАЧАННОЕ НЕ ЗАСЧИТЫВАЕТСЯ! Золото
Дата: Зарегистрирован   [ Тип: внутренний ] Как тут cкачать?
MAGNET ссылка
MAGNET ссылка


Скачать .torrent

13 KB

Статус: проверено DHT
Скачан: торрент - 125 раз, раздача полностью - 53 раз
Размер: 2,46 GB
Оценка:  - (Голосов: 0)
Поблагодарили: 3
Поделиться ссылкой на эту раздачу с друзьями:
В контактеFacebookОдноклассникиTwitterLivejournalМой МирLiveinternet
 

 
Показать сообщения:    


Вы не можете начинать темы
Вы не можете отвечать на сообщения
Вы не можете редактировать свои сообщения
Вы не можете удалять свои сообщения
Вы не можете голосовать в опросах
Вы не можете прикреплять файлы к сообщениям
Вы можете скачивать файлы