Loading...
Error

Скачать Любовный напиток номер 9 / Любовный элексир номер 9 / Love Potion No. 9 (Дэйл Лаунер) [1992, фэнтези, мелодрама, комедия, DVDRip] [MVO]x2+[AVO] торрент без регистрации

 
Статистика раздачи
Размер:  2,06 GB   |    Скачан:  94 раза
Сидов:  1  [  0 KB/s  ]  
 
Автор Сообщение

Marsianka

[] 

Информация о фильме
Название: Любовный напиток номер 9 / Любовный элексир номер 9
Оригинальное название: Love Potion No. 9
Год выхода: 1992
Жанр: фэнтези, мелодрама, комедия
Режиссёр: Дэйл Лаунер
В ролях: Сандра Баллок, Тэйт Донован, Эдриан Пол, Дэйл Мидкифф, Мэри Мара, Хиллари Бэйли Смит, Дилан Бэйкер, Блэйк Кларк, Брюс МакКарти, Энн Бэнкрофт

О фильме:
В 90-е годы в мире науки стало возможно все - или почти все. В том числе и мечта всех одиноких мужчин и женщин - любовный эликсир, во власти которого заставить всех представителей противоположного пола мгновенно и безумно в тебя влюбиться. Молодые ученые Пол и Диана, одинокие, застенчивые и увлеченные только своей работой, изобрели эликсир любви. И, после успешных испытаний на животных, приняв на грудь божественный эликсир, пустились в легкомысленные амурные приключения.



Страна: США
Студия: Twentieth Century Fox Film Corporation, Penta Pictures
Продолжительность: 01:36:11
Перевод: Профессиональный многоголосый (ст. "Инис"), профессиональный многоголосый (ст. "Фильм-экспорт"), авторский одноголосый (П. Санаев)
Оригинальная аудио-дорожка: Нет

Файл
Кодек: XviD
Качество: DVDRip
Видео: XviD, 2211 Кбит/с, 704x384 (16:9), 23.976 кадр/с

Аудио #1: Русский, Dolby AC3, 48000 Гц, 448 Кбит/с, 6 каналов (5.1) - MVO [Инис]
Аудио #2: Русский, Dolby AC3, 48000 Гц, 192 Кбит/с, 2 канала (Стерео) - MVO [Фидьм-экспорт]
Аудио #3: Русский, Dolby AC3, 48000 Гц, 192 Кбит/с, 2 канала (Стерео) - AVO [П. Санаев]
Субтитры: Нет

General
Complete name : Love.Potion.No.9.1992.Triple.DVDRip.avi
Format : AVI
Format/Info : Audio Video Interleave
Format profile : OpenDML
File size : 2.06 GiB
Duration : 1h 36mn
Overall bit rate : 3 061 Kbps
Movie name : Любовный напиток номер 9 / Любовный элексир номер 9 / Love Potion No. 9 (1992) DVDRip
Genre : Фэнтези, мелодрама, комедия
Recorded date : 07.10.2014
Writing application : VirtualDubMod 1.5.10.3 | www.virtualdub-fr.org || (build 2550/release)
Writing library : VirtualDubMod build 2550/release
Copyright : rip by ivandubskoj

Video
ID : 0
Format : MPEG-4 Visual
Format profile : Advanced Simple@L5
Format settings, BVOP : 1
Format settings, QPel : No
Format settings, GMC : No warppoints
Format settings, Matrix : Default (MPEG)
Codec ID : XVID
Codec ID/Hint : XviD
Duration : 1h 36mn
Bit rate : 2 211 Kbps
Width : 704 pixels
Height : 384 pixels
Display aspect ratio : 16:9
Frame rate : 23.976 fps
Color space : YUV
Chroma subsampling : 4:2:0
Bit depth : 8 bits
Scan type : Progressive
Compression mode : Lossy
Bits/(Pixel*Frame) : 0.341
Stream size : 1.49 GiB (72%)
Writing library : XviD 73

Audio #1
ID : 1
Format : AC-3
Format/Info : Audio Coding 3
Mode extension : CM (complete main)
Codec ID : 2000
Duration : 1h 36mn
Bit rate mode : Constant
Bit rate : 448 Kbps
Channel(s) : 6 channels
Channel positions : Front: L C R, Side: L R, LFE
Sampling rate : 48.0 KHz
Bit depth : 16 bits
Compression mode : Lossy
Stream size : 308 MiB (15%)
Alignment : Split accross interleaves
Interleave, duration : 64 ms (1.53 video frames)
Interleave, preload duration : 500 ms
Title : MVO [Инис]

Audio #2
ID : 2
Format : AC-3
Format/Info : Audio Coding 3
Mode extension : CM (complete main)
Codec ID : 2000
Duration : 1h 36mn
Bit rate mode : Constant
Bit rate : 192 Kbps
Channel(s) : 2 channels
Channel positions : Front: L R
Sampling rate : 48.0 KHz
Bit depth : 16 bits
Compression mode : Lossy
Stream size : 132 MiB (6%)
Alignment : Split accross interleaves
Interleave, duration : 64 ms (1.53 video frames)
Interleave, preload duration : 500 ms
Title : MVO [Фильм-экспорт]

Audio #3
ID : 3
Format : AC-3
Format/Info : Audio Coding 3
Mode extension : CM (complete main)
Codec ID : 2000
Duration : 1h 36mn
Bit rate mode : Constant
Bit rate : 192 Kbps
Channel(s) : 2 channels
Channel positions : Front: L R
Sampling rate : 48.0 KHz
Bit depth : 16 bits
Compression mode : Lossy
Stream size : 132 MiB (6%)
Alignment : Split accross interleaves
Interleave, duration : 64 ms (1.53 video frames)
Interleave, preload duration : 500 ms
Title : AVO [П. Санаев]
Автор рипа - ivandubskoj



Скачать Любовный.напиток.номер.9.Любовный.элексир.номер.9.Love.Potion.No.9.(Дэйл.Лаунер).[1992.фэнтези.мелодрама.комедия.DVDRip].[MVO]x2+[AVO].torrent без регистрации
Золото ЗОЛОТАЯ РАЗДАЧА! СКАЧАННОЕ НЕ ЗАСЧИТЫВАЕТСЯ! Золото
Дата: Зарегистрирован   [ Тип: внутренний ] Как тут cкачать?
MAGNET ссылка
MAGNET ссылка


Скачать .torrent

11 KB

Статус: проверено DHT
Скачан: торрент - 94 раз, раздача полностью - 2 раз
Размер: 2,06 GB
Оценка:  - (Голосов: 0)
Поблагодарили: 0
Поделиться ссылкой на эту раздачу с друзьями:
В контактеFacebookОдноклассникиTwitterLivejournalМой МирLiveinternet
 

 
Показать сообщения:    


Вы не можете начинать темы
Вы не можете отвечать на сообщения
Вы не можете редактировать свои сообщения
Вы не можете удалять свои сообщения
Вы не можете голосовать в опросах
Вы не можете прикреплять файлы к сообщениям
Вы можете скачивать файлы