Loading...
Error

Скачать Двойной удар / Double Impact (Шелдон Леттич) [1991, боевик, триллер, драма, криминал, BDRip-AVC] [MVO]x4+[Dub (Хлопушка)]+[AVO (Андрей Гаврилов)]+[Sub]x2 торрент без регистрации

 
Статистика раздачи
Размер:  2,92 GB   |    Скачан:  120 раз
Сидов:  1  [  0 KB/s  ]  
 
Автор Сообщение

Marsianka

[] 

Двойной удар
| Double Impact |


Информация о фильме
Название: Двойной удар
Оригинальное название: Double Impact
Год выхода: 1991
Жанр: боевик, триллер, драма, криминал
Режиссер: Шелдон Леттич
В ролях: Жан-Клод Ван Дамм, Джеффри Льюис, Алонна Шоу, Коринна Эверсон, Филип Чань, Алан Скарф, Боло Йенг, Энди Армстронг, Ву Фонг Ланг, Питер Малота, Сара-Джейн Варли, Камель Крифа, Юджин Чой, Джэк Гиларди мл., Дэвид Лиа, Донн Бердаль, Синг Чан, Джули Стрэйн, Гален Юэнь, Алисия Стивенсон, Кристофер Люн, Лео Ли, Нг Квоккай, Чоу Квок По, Ю Вэй Кеунг, Юк-Сан Чунг, Джон Шам, Ли Тат Чи, Ли Бинг Чи, Вонг Чи Кин, Джон Чунг, Цан Синг Квок, Пол Айлетт, Чинг Вэй Чунг, Дэвид Хо, Сара Юэнь, Чун То Тан, Эрик ЭнДжи, Сиу Ва Чан, Ивэн Лури, Роланд Лор, Дженнифер Стоун, Рита Лау, Вонг Чунг Чинг, Жорж Бедже, Мэттью Дж Кэйтс, Шелли Мишель

О фильме:
Когда-то мафия из Гонконга жестоко и безжалостно расправилась с родителями братьев-близнецов Чеда и Алекса, которых чудом удалось спасти в давней кровавой перестрелке. Судьба раскидала братьев по разные стороны океана: один рос в Калифорнии, другой остался в Гонконге. И вот спустя 25 лет стараниями верного друга их погибших родителей два брата встречаются, чтобы заставить виновников того преступления сильно раскаяться в некогда содеянном.



Страна: США
Студия: Stone Group Pictures, Vision International
Продолжительность: 01:49:40
Перевод: Профессиональный многоголосый, дублированный, авторский

Файл
Кодек: h.264
Качество: BDRip-AVC
Видео: 2281 Кбит/с, 1024x554, 23.976 кадр/с
• №1: Русский (AC3, 2 ch, 192 Кбит/с) Профессиональный многоголосый [R5]
• №2: Русский (AC3, 2 ch, 192 Кбит/с) Авторский [Андрей Гаврилов]
• №3: Английский (AC3, 2 ch, 192 Кбит/с)
Отдельно:
• №4: Русский (AC3, 2 ch, 192 Кбит/с) Дублированный [Хлопушка]
• №5: Русский (AC3, 6 ch, 384 Кбит/с) Профессиональный многоголосый [ОРТ]
• №6: Русский (AC3, 2 ch, 192 Кбит/с) Профессиональный многоголосый [ТНТ]
• №7: Украинский (AC3, 2 ch, 192 Кбит/с) Профессиональный многоголосый [2+2]

Субтитры: Русские, английские

--------------------------------------------------------------------------------------
x264 [info]: frame I:1482 Avg QP:15.94 size: 98342
x264 [info]: frame P:40453 Avg QP:19.31 size: 25613
x264 [info]: frame B:115836 Avg QP:21.17 size: 5977
x264 [info]: consecutive B-frames: 3.8% 6.5% 13.6% 19.5% 22.6% 30.5% 2.5% 0.4% 0.2% 0.1% 0.0% 0.1%
--------------------------------------------------------------------------------------

Полное имя : Double.Impact.1991.x264.BDRip-AVC.0ptimus.mkv
Формат : Matroska
Версия формата : Version 2
Размер файла : 2,19 Гбайт
Продолжительность : 1 ч. 49 м.
Общий поток : 2857 Кбит/сек
Название фильма : Двойной удар | Double Impact [1991] -= BDRip (AVC) by 0ptimus =-
Дата кодирования : UTC 2014-03-17 07:31:52
Программа кодирования : mkvmerge v6.6.0 ('The Edge Of The In Between') built on Dec 1 2013 17:55:00
Библиотека кодирования : libebml v1.3.0 + libmatroska v1.4.1

Видео
Идентификатор : 1
Формат : AVC
Формат/Информация : Advanced Video Codec
Профиль формата : High@L4.1
Параметр CABAC формата : Да
Параметр ReFrames формата : 8 кадров
Идентификатор кодека : V_MPEG4/ISO/AVC
Продолжительность : 1 ч. 49 м.
Битрейт : 2281 Кбит/сек
Ширина : 1024 пикселя
Высота : 554 пикселя
Соотношение сторон : 1,85:1
Режим частоты кадров : Постоянный
Частота кадров : 23,976 кадра/сек
Цветовое пространство : YUV
Субдискретизация насыщенности : 4:2:0
Битовая глубина : 8 бит
Тип развёртки : Прогрессивная
Бит/(Пиксели*Кадры) : 0.168
Размер потока : 1,70 Гбайт (78%)
Заголовок : Rip by 0ptimus
Библиотека кодирования : x264 core 133 r2334 a3ac64b
Настройки программы : cabac=1 / ref=8 / deblock=1:-3:-3 / analyse=0x3:0x113 / me=umh / subme=11 / psy=1 / psy_rd=1.00:0.20 / mixed_ref=1 / me_range=48 / chroma_me=1 / trellis=2 / 8x8dct=1 / cqm=0 / deadzone=21,11 / fast_pskip=0 / chroma_qp_offset=-3 / threads=4 / lookahead_threads=1 / sliced_threads=0 / nr=0 / decimate=0 / interlaced=0 / bluray_compat=0 / constrained_intra=0 / bframes=11 / b_pyramid=2 / b_adapt=2 / b_bias=0 / direct=3 / weightb=1 / open_gop=0 / weightp=2 / keyint=240 / keyint_min=23 / scenecut=40 / intra_refresh=0 / rc_lookahead=40 / rc=2pass / mbtree=0 / bitrate=2281 / ratetol=1.0 / qcomp=0.60 / qpmin=0 / qpmax=69 / qpstep=4 / cplxblur=20.0 / qblur=0.5 / vbv_maxrate=50000 / vbv_bufsize=50000 / nal_hrd=none / ip_ratio=1.40 / pb_ratio=1.30 / aq=1:1.00
Язык : English
Default : Да
Forced : Да

Аудио #1
Идентификатор : 2
Формат : AC-3
Формат/Информация : Audio Coding 3
Расширение режима : CM (complete main)
Параметр Endianness формата : Big
Идентификатор кодека : A_AC3
Продолжительность : 1 ч. 49 м.
Вид битрейта : Постоянный
Битрейт : 192 Кбит/сек
Каналы : 2 канала
Расположение каналов : Front: L R
Частота : 48,0 КГц
Битовая глубина : 16 бит
Метод сжатия : С потерями
Размер потока : 151 Мбайт (7%)
Заголовок : Многоголосый закадровый [R5] AC3 2.0 @ 192 kbps
Язык : Russian
Default : Нет
Forced : Нет

Аудио #2
Идентификатор : 3
Формат : AC-3
Формат/Информация : Audio Coding 3
Расширение режима : CM (complete main)
Параметр Endianness формата : Big
Идентификатор кодека : A_AC3
Продолжительность : 1 ч. 49 м.
Вид битрейта : Постоянный
Битрейт : 192 Кбит/сек
Каналы : 2 канала
Расположение каналов : Front: L R
Частота : 48,0 КГц
Битовая глубина : 16 бит
Метод сжатия : С потерями
Размер потока : 151 Мбайт (7%)
Заголовок : Авторский [Андрей Гаврилов] AC3 2.0 @ 192 kbps
Язык : Russian
Default : Нет
Forced : Нет

Аудио #3
Идентификатор : 4
Формат : AC-3
Формат/Информация : Audio Coding 3
Расширение режима : CM (complete main)
Параметр Endianness формата : Big
Идентификатор кодека : A_AC3
Продолжительность : 1 ч. 49 м.
Вид битрейта : Постоянный
Битрейт : 192 Кбит/сек
Каналы : 2 канала
Расположение каналов : Front: L R
Частота : 48,0 КГц
Битовая глубина : 16 бит
Метод сжатия : С потерями
Размер потока : 151 Мбайт (7%)
Заголовок : AC3 2.0 @ 192 kbps
Язык : English
Default : Нет
Forced : Нет

Текст #1
Идентификатор : 5
Формат : UTF-8
Идентификатор кодека : S_TEXT/UTF8
Идентификатор кодека/Информация : UTF-8 Plain Text
Язык : Russian
Default : Нет
Forced : Нет

Текст #2
Идентификатор : 6
Формат : UTF-8
Идентификатор кодека : S_TEXT/UTF8
Идентификатор кодека/Информация : UTF-8 Plain Text
Язык : English
Default : Нет
Forced : Нет

Меню
00:00:00.000 : en:Chapter 1
00:03:22.035 : en:Chapter 2
00:09:45.334 : en:Chapter 3
00:13:07.161 : en:Chapter 4
00:21:00.050 : en:Chapter 5
00:29:03.616 : en:Chapter 6
00:37:33.251 : en:Chapter 7
00:42:20.955 : en:Chapter 8
00:50:04.376 : en:Chapter 9
00:58:54.656 : en:Chapter 10
01:07:32.131 : en:Chapter 11
01:17:58.548 : en:Chapter 12
01:23:50.066 : en:Chapter 13
01:28:48.072 : en:Chapter 14
01:34:14.398 : en:Chapter 15
01:44:12.621 : en:Chapter 16
01:49:40.323 : en:Chapter 17
Релиз от:



Скачать Двойной.удар.Double.Impact.(Шелдон.Леттич).[1991.боевик.триллер.драма.криминал.BDRip-AVC].[MVO]x4+[Dub.(Хлопушка)]+[AVO.(Андрей.Гаврилов)]+[Sub]x2.torrent без регистрации
Золото ЗОЛОТАЯ РАЗДАЧА! СКАЧАННОЕ НЕ ЗАСЧИТЫВАЕТСЯ! Золото
Дата: Зарегистрирован   [ Тип: внутренний ] Как тут cкачать?
MAGNET ссылка
MAGNET ссылка


Скачать .torrent

31 KB

Статус: проверено DHT
Скачан: торрент - 120 раз, раздача полностью - 9 раз
Размер: 2,92 GB
Оценка:  - (Голосов: 0)
Поблагодарили: 2
Поделиться ссылкой на эту раздачу с друзьями:
В контактеFacebookОдноклассникиTwitterLivejournalМой МирLiveinternet
 

 
Показать сообщения:    


Вы не можете начинать темы
Вы не можете отвечать на сообщения
Вы не можете редактировать свои сообщения
Вы не можете удалять свои сообщения
Вы не можете голосовать в опросах
Вы не можете прикреплять файлы к сообщениям
Вы можете скачивать файлы