Loading...
Error

Скачать Переводчица / The Interpreter (Сидни Поллак) [2005, триллер, детектив, BDRip-AVC] [Dub]+[MVO]x2+[DVO]+[Оригинал]+[Sub]x2 торрент без регистрации

 
Статистика раздачи
Размер:  4,5 GB   |    Скачан:  109 раз
Сидов:  1  [  0 KB/s  ]  
 
Автор Сообщение

Marsianka

[] 

Информация о фильме
Название: Переводчица
Оригинальное название: The Interpreter
Год выхода: 2005
Жанр: триллер, детектив
Режиссер: Сидни Поллак
В ролях: Николь Кидман, Шон Пенн, Кэтрин Кинер, Джеспер Кристенсен, Иван Атталь, Эрл Кэмерон, Джордж Харрис, Майкл Райт, Клайд Кусацу, Эрик Кинлисайд, Хьюго Спир, Маз Джобрани, Юсуф Гейтвуд, Кертисс Кук, Байрон Атли, Роберт Клохесси, Терри Серпико, Джон Нокс, Дэвид Зайас

О фильме: Переводчица случайно узнает о готовящемся убийстве главы одного африканского государства, который должен на днях посетить Генеральную ассамблею ООН. Пытаясь предотвратить покушение, она подвергает свою жизнь смертельной опасности. И пока она сама не стала жертвой, ей отчаянно нужно, чтобы кто-нибудь ей поверил и помог…



Страна: США
Студия: Universal Pictures, Working Title Films, Misher Films, Mirage Entertainment, Studio Canal, Motion Picture JOTA Produktions
Продолжительность: 02:08:19
Перевод: Дублированный, профессиональный многоголосый, профессиональный двухголосый

Файл
Кодек: MPEG-4 AVC
Качество: BDRip-AVC
Видео: 3100 Кбит/с, 1024x436, 23.976 кадр/с

Семпл
Аудио #1: Русский (AC3, 6 ch, 448 Кбит/с) / Дублированный (Мосфильм-Мастер)
Аудио #2: Русский (AC3, 6 ch, 448 Кбит/с) / Профессиональный многоголосый
Аудио #3: Русский (AC3, 6 ch, 448 Кбит/с) / Профессиональный двухголосый (Tycoon-Studio)
Аудио #4: Украинский (AC3, 2 ch, 192 Кбит/с) / Профессиональный многоголосый
Аудио #5: Английский (AC3, 6 ch, 448 Кбит/с)
Субтитры: Русские, английские
Общее
Уникальный идентификатор : 196870418320098059253346788951026613091 (0x941BDD06840583A5BD180AAF8CACBB63)
Полное имя : D:Мои РипыPerevodchica.2005.x264.BDRip.AVC.MediaClub.mkv
Формат : Matroska
Версия формата : Version 4 / Version 2
Размер файла : 4,50 Гбайт
Продолжительность : 2 ч. 8 м.
Общий поток : 5018 Кбит/сек
Название фильма : = MediaClub = rip by krakatuq
Дата кодирования : UTC 2014-10-08 12:08:46
Программа кодирования : mkvmerge v6.6.0 ('The Edge Of The In Between') built on Dec 1 2013 17:55:00
Библиотека кодирования : libebml v1.3.0 + libmatroska v1.4.1

Видео
Идентификатор : 1
Формат : AVC
Формат/Информация : Advanced Video Codec
Профиль формата : High@L4.1
Параметр CABAC формата : Да
Параметр ReFrames формата : 9 кадров
Идентификатор кодека : V_MPEG4/ISO/AVC
Продолжительность : 2 ч. 8 м.
Битрейт : 3100 Кбит/сек
Ширина : 1024 пикселя
Высота : 436 пикселей
Соотношение сторон : 2,35:1
Режим частоты кадров : Постоянный
Частота кадров : 23,976 кадра/сек
Цветовое пространство : YUV
Субдискретизация насыщенности : 4:2:0
Битовая глубина : 8 бит
Тип развёртки : Прогрессивная
Бит/(Пиксели*Кадры) : 0.290
Размер потока : 2,69 Гбайт (60%)
Заголовок : Perevodchica.2005.x264.BDRip.AVC.MediaClub
Библиотека кодирования : x264 core 142 r2409+42 04be48a tMod [8-bit@4:2:0 X86]
Настройки программы : cabac=1 / ref=9 / deblock=1:-2:-2 / analyse=0x3:0x133 / me=umh / subme=11 / psy=1 / fade_compensate=0.00 / psy_rd=1.00:0.20 / mixed_ref=1 / me_range=32 / chroma_me=1 / trellis=2 / 8x8dct=1 / cqm=0 / deadzone=21,11 / fast_pskip=0 / chroma_qp_offset=-3 / threads=3 / lookahead_threads=1 / sliced_threads=0 / nr=0 / decimate=0 / interlaced=0 / bluray_compat=0 / constrained_intra=0 / fgo=0 / bframes=8 / b_pyramid=2 / b_adapt=2 / b_bias=0 / direct=3 / weightb=1 / open_gop=0 / weightp=2 / keyint=240 / keyint_min=23 / scenecut=40 / intra_refresh=0 / rc=2pass / mbtree=0 / bitrate=3100 / ratetol=1.0 / qcomp=0.60 / qpmin=0:0:0 / qpmax=69:69:69 / qpstep=4 / cplxblur=20.0 / qblur=0.5 / ip_ratio=1.40 / pb_ratio=1.30 / aq=1:1.00 / aq-sensitivity=10.00 / aq-factor=1.00:1.00:1.00 / aq2=0 / aq3=0
Язык : English
Default : Да
Forced : Нет

Аудио #1
Идентификатор : 2
Формат : AC-3
Формат/Информация : Audio Coding 3
Расширение режима : CM (complete main)
Параметр Endianness формата : Big
Идентификатор кодека : A_AC3
Продолжительность : 2 ч. 8 м.
Вид битрейта : Постоянный
Битрейт : 448 Кбит/сек
Каналы : 6 каналов
Расположение каналов : Front: L C R, Side: L R, LFE
Частота : 48,0 КГц
Битовая глубина : 16 бит
Метод сжатия : С потерями
Размер потока : 411 Мбайт (9%)
Заголовок : TRACK_01_DUB_RUS
Язык : Russian
Default : Да
Forced : Да

Аудио #2
Идентификатор : 3
Формат : AC-3
Формат/Информация : Audio Coding 3
Расширение режима : CM (complete main)
Параметр Endianness формата : Big
Идентификатор кодека : A_AC3
Продолжительность : 2 ч. 8 м.
Вид битрейта : Постоянный
Битрейт : 448 Кбит/сек
Каналы : 6 каналов
Расположение каналов : Front: L C R, Side: L R, LFE
Частота : 48,0 КГц
Битовая глубина : 16 бит
Метод сжатия : С потерями
Размер потока : 411 Мбайт (9%)
Заголовок : TRACK_02_MVO_RUS
Язык : Russian
Default : Нет
Forced : Нет

Аудио #3
Идентификатор : 4
Формат : AC-3
Формат/Информация : Audio Coding 3
Расширение режима : CM (complete main)
Параметр Endianness формата : Big
Идентификатор кодека : A_AC3
Продолжительность : 2 ч. 8 м.
Вид битрейта : Постоянный
Битрейт : 384 Кбит/сек
Каналы : 6 каналов
Расположение каналов : Front: L C R, Side: L R, LFE
Частота : 48,0 КГц
Битовая глубина : 16 бит
Метод сжатия : С потерями
Размер потока : 352 Мбайт (8%)
Заголовок : TRACK_03_DVO_RUS
Язык : Russian
Default : Нет
Forced : Нет

Аудио #4
Идентификатор : 5
Формат : AC-3
Формат/Информация : Audio Coding 3
Расширение режима : CM (complete main)
Параметр Endianness формата : Big
Идентификатор кодека : A_AC3
Продолжительность : 2 ч. 8 м.
Вид битрейта : Постоянный
Битрейт : 192 Кбит/сек
Каналы : 2 канала
Расположение каналов : Front: L R
Частота : 48,0 КГц
Битовая глубина : 16 бит
Метод сжатия : С потерями
Размер потока : 176 Мбайт (4%)
Заголовок : TRACK_04_MVO_UKR
Язык : Ukrainian
Default : Нет
Forced : Нет

Аудио #5
Идентификатор : 6
Формат : AC-3
Формат/Информация : Audio Coding 3
Расширение режима : CM (complete main)
Параметр Endianness формата : Big
Идентификатор кодека : A_AC3
Продолжительность : 2 ч. 8 м.
Вид битрейта : Постоянный
Битрейт : 448 Кбит/сек
Каналы : 6 каналов
Расположение каналов : Front: L C R, Side: L R, LFE
Частота : 48,0 КГц
Битовая глубина : 16 бит
Метод сжатия : С потерями
Размер потока : 411 Мбайт (9%)
Заголовок : TRACK_05_ORIGINAL_ENG
Язык : English
Default : Нет
Forced : Нет

Текст #1
Идентификатор : 7
Формат : UTF-8
Идентификатор кодека : S_TEXT/UTF8
Идентификатор кодека/Информация : UTF-8 Plain Text
Заголовок : TEXT_01_SUB_RUS
Язык : Russian
Default : Нет
Forced : Нет

Текст #2
Идентификатор : 8
Формат : UTF-8
Идентификатор кодека : S_TEXT/UTF8
Идентификатор кодека/Информация : UTF-8 Plain Text
Заголовок : TEXT_02_SUB_ENG
Язык : English
Default : Нет
Forced : Нет

Меню
00:00:00.000 : :1. Good Day to You
00:05:43.802 : :2. At the U.N.
00:11:28.688 : :3. International Predicament
00:18:40.870 : :4. The Secret Service
00:24:54.827 : :5. Credible Threat
00:32:38.123 : :6. No Misinterpretations
00:36:51.459 : :7. Under Surveillance
00:45:13.961 : :8. Being Honest
00:53:15.442 : :9. Risky Rendezvous
00:59:37.866 : :10. Losing Sleep
01:05:52.157 : :11. Boarding the Bus
01:11:46.219 : :12. An Act of Terrorism
01:16:21.535 : :13. Bad Politics
01:23:53.487 : :14. Confirmed Dead
01:30:49.027 : :15. Gone Missing
01:38:09.092 : :16. The Target has Arrived
01:43:44.218 : :17. Assassination Attempt
01:49:06.165 : :18. In the Safe Room
01:58:24.139 : :19. Going Home
02:03:47.378 : :20. End Titles

x264 log
x264 [info]: frame I:2398 Avg QP:15.12 size: 80829
x264 [info]: frame P:39478 Avg QP:17.85 size: 30253
x264 [info]: frame B:142731 Avg QP:19.37 size: 11146
Релиз от:

Автор рипа:



Скачать Переводчица.The.Interpreter.(Сидни.Поллак).[2005.триллер.детектив.BDRip-AVC].[Dub]+[MVO]x2+[DVO]+[Оригинал]+[Sub]x2.torrent без регистрации
Золото ЗОЛОТАЯ РАЗДАЧА! СКАЧАННОЕ НЕ ЗАСЧИТЫВАЕТСЯ! Золото
Дата: Зарегистрирован   [ Тип: внутренний ] Как тут cкачать?
MAGNET ссылка
MAGNET ссылка


Скачать .torrent

23 KB

Статус: проверено DHT
Скачан: торрент - 109 раз, раздача полностью - 6 раз
Размер: 4,5 GB
Оценка:  - (Голосов: 0)
Поблагодарили: 2
Поделиться ссылкой на эту раздачу с друзьями:
В контактеFacebookОдноклассникиTwitterLivejournalМой МирLiveinternet
 

 
Показать сообщения:    


Вы не можете начинать темы
Вы не можете отвечать на сообщения
Вы не можете редактировать свои сообщения
Вы не можете удалять свои сообщения
Вы не можете голосовать в опросах
Вы не можете прикреплять файлы к сообщениям
Вы можете скачивать файлы