Loading...
Error

Скачать Ультрафиолет / Ultraviolet (Курт Уиммер) [2006, фантастика, боевик, антиутопия, BDRip-AVC] [Theatrical version] [Dub]+[MVO]+[AVO]+[Sub]x2 торрент без регистрации

 
Статистика раздачи
Размер:  2,21 GB   |    Скачан:  117 раз
Сидов:  1  [  0 KB/s  ]  
 
Автор Сообщение

Marsianka

[] 

Информация о фильме
Название: Ультрафиолет
Оригинальное название: Ultraviolet
Год выпуска: 2006
Жанр: фантастика, боевик, антиутопия
Выпущено: США, Screen Gems, Ultravi Productions Inc.
Режиссер: Курт Уиммер
В ролях: Милла Йовович, Кэмерон Брайт, Ник Чинланд, Себастьен Эндриё, Ида Мартин, Уильям Фихтнер, Дэвид Колье, Диггер Мещ, Райан Мартин, Стивен Кэлкот, Рикардо Мамуд, Майк Смит, Клэй Каллен, Дженнифер Капуто, Джек Мерфи, Абрахам Бойд, Мэттью Старгесс, Алекс Ки, Пит Спурье, Расселл Уэйт, Юлия Галенко, Люк Джексон, Крис Гарнер, Дюк Луу, Курт Уиммер, Джилад Лотан, Филлип Мур, Роберт Алонсо, Мишель Гулд, Дэниэл Хоу, Скотт Пайпер, Игорь Смилжевич, Дон Фергюсон

О фильме: Конец XXI века. На Земле бушует ожесточенная война между обычными людьми и новым подвидом людей-вампиров. Непобедимый вирус, детище коварных спецслужб, способен в одночасье наделить любого человека невероятной силой, фантастической ловкостью и несравненным интеллектом. Однако за невероятные способности подопытные расплачиваются собственной жизнью. Жертвы глобальной эпидемии обречены на уничтожение, но бесстрашные повстанцы намерены бороться до конца. Среди них – отважная Вайолет. У нее есть всего 36 часов на то, чтобы выполнить свою последнюю миссию. Одна неуязвимая красавица против армии спецагентов в мире, стоящем на краю бездны – решающий элемент в смертельном противостоянии людей и суперменов!



Качество: BDRip (AVC)
Видео: MPEG-4 AVC, 2083 Кбит/с, 1024x554
Аудио: Русский (AС3, 2 ch, 192 Кбит/с), (AС3, 6 ch, 448 Кбит/с), английский (AС3, 6 ch, 448 Кбит/с)
Продолжительность: 01:27:33
Дублированный, профессиональный многоголосый, авторский
Субтитры: Русские, английские

Дублированный - AС3, 6 ch, 448 Кбит/с
профессиональный многоголосый - AС3, 6 ch, 448 Кбит/с
авторский одноголосый (Карповский) - AС3, 2 ch, 192 Кбит/с
General
Unique ID : 208948169075319399902396956906096492895 (0x9D31F41CD1044BA0960A36398FBD015F)
Complete name : C:Ultraviolet.2006.BDRip.AVC.ExKinoRay.mkv
Format : Matroska
Format version : Version 2
File size : 2.21 GiB
Duration : 1h 27mn
Overall bit rate : 3 617 Kbps
Movie name : Ultraviolet (Theatrical version) 2006 from ExKinoRay
Encoded date : UTC 2014-10-05 04:17:53
Writing application : mkvmerge v4.9.1 ('Ich will') built on Jul 11 2011 23:53:15
Writing library : libebml v1.2.1 + libmatroska v1.1.1

Video
ID : 1
Format : AVC
Format/Info : Advanced Video Codec
Format profile : High@L4.1
Format settings, CABAC : Yes
Format settings, ReFrames : 9 frames
Codec ID : V_MPEG4/ISO/AVC
Duration : 1h 27mn
Bit rate : 2 083 Kbps
Width : 1 024 pixels
Height : 554 pixels
Display aspect ratio : 1.85:1
Frame rate mode : Constant
Frame rate : 23.976 fps
Color space : YUV
Chroma subsampling : 4:2:0
Bit depth : 8 bits
Scan type : Progressive
Bits/(Pixel*Frame) : 0.153
Stream size : 1.23 GiB (56%)
Title : Enigma
Writing library : x264 core 116 r2044 392e762
Encoding settings : cabac=1 / ref=9 / deblock=1:-2:-2 / analyse=0x3:0x113 / me=umh / subme=10 / psy=1 / psy_rd=1.00:0.20 / mixed_ref=1 / me_range=32 / chroma_me=1 / trellis=2 / 8x8dct=1 / cqm=0 / deadzone=21,11 / fast_pskip=0 / chroma_qp_offset=-3 / threads=12 / sliced_threads=0 / nr=0 / decimate=0 / interlaced=0 / bluray_compat=0 / constrained_intra=0 / bframes=9 / b_pyramid=2 / b_adapt=2 / b_bias=0 / direct=3 / weightb=1 / open_gop=0 / weightp=2 / keyint=240 / keyint_min=23 / scenecut=40 / intra_refresh=0 / rc=2pass / mbtree=0 / bitrate=2083 / ratetol=1.0 / qcomp=0.60 / qpmin=0 / qpmax=69 / qpstep=4 / cplxblur=20.0 / qblur=0.5 / ip_ratio=1.40 / pb_ratio=1.30 / aq=1:1.00
Language : English
Default : Yes
Forced : No

Audio #1
ID : 2
Format : AC-3
Format/Info : Audio Coding 3
Mode extension : CM (complete main)
Format settings, Endianness : Big
Codec ID : A_AC3
Duration : 1h 27mn
Bit rate mode : Constant
Bit rate : 448 Kbps
Channel(s) : 6 channels
Channel positions : Front: L C R, Side: L R, LFE
Sampling rate : 48.0 KHz
Bit depth : 16 bits
Compression mode : Lossy
Stream size : 281 MiB (12%)
Title : DUB CEE
Language : Russian
Default : Yes
Forced : No

Audio #2
ID : 3
Format : AC-3
Format/Info : Audio Coding 3
Mode extension : CM (complete main)
Format settings, Endianness : Big
Codec ID : A_AC3
Duration : 1h 27mn
Bit rate mode : Constant
Bit rate : 448 Kbps
Channel(s) : 6 channels
Channel positions : Front: L C R, Side: L R, LFE
Sampling rate : 48.0 KHz
Bit depth : 16 bits
Compression mode : Lossy
Stream size : 281 MiB (12%)
Title : MVO
Language : Russian
Default : No
Forced : No

Audio #3
ID : 4
Format : AC-3
Format/Info : Audio Coding 3
Mode extension : CM (complete main)
Format settings, Endianness : Big
Codec ID : A_AC3
Duration : 1h 27mn
Bit rate mode : Constant
Bit rate : 192 Kbps
Channel(s) : 2 channels
Channel positions : Front: L R
Sampling rate : 48.0 KHz
Bit depth : 16 bits
Compression mode : Lossy
Stream size : 120 MiB (5%)
Title : AVO Karpovskiy
Language : Russian
Default : No
Forced : No

Audio #4
ID : 5
Format : AC-3
Format/Info : Audio Coding 3
Mode extension : CM (complete main)
Format settings, Endianness : Big
Codec ID : A_AC3
Duration : 1h 27mn
Bit rate mode : Constant
Bit rate : 448 Kbps
Channel(s) : 6 channels
Channel positions : Front: L C R, Side: L R, LFE
Sampling rate : 48.0 KHz
Bit depth : 16 bits
Compression mode : Lossy
Stream size : 281 MiB (12%)
Language : English
Default : No
Forced : No

Text #1
ID : 6
Format : UTF-8
Codec ID : S_TEXT/UTF8
Codec ID/Info : UTF-8 Plain Text
Language : Russian
Default : No
Forced : No

Text #2
ID : 7
Format : UTF-8
Codec ID : S_TEXT/UTF8
Codec ID/Info : UTF-8 Plain Text
Language : English
Default : No
Forced : No

Menu
00:00:00.000 : :Ultraviolet
00:05:21.779 : :Exit Strategy
00:11:09.710 : :H.G.V.
00:17:47.483 : :Confirming "Receipt"
00:22:13.540 : :X3D-154
00:27:23.767 : :"How Did She Do That?"
00:35:18.116 : :Pursuit
00:38:53.748 : :Curiosity
00:45:30.018 : :Blood Chinois
00:51:40.388 : :Ego-Maniac
00:56:23.046 : :Six
01:00:09.105 : :Enemies & Allies
01:04:49.886 : :Mutual Self-Interest
01:09:10.062 : :Memories
01:15:41.036 : :Tainted
01:23:17.409 : :Goodbye?
Релиз от:

Автор релиза:



Скачать Ультрафиолет.Ultraviolet.(Курт.Уиммер).[2006.фантастика.боевик.антиутопия.BDRip-AVC].[Theatrical.version].[Dub]+[MVO]+[AVO]+[Sub]x2.torrent без регистрации
Золото ЗОЛОТАЯ РАЗДАЧА! СКАЧАННОЕ НЕ ЗАСЧИТЫВАЕТСЯ! Золото
Дата: Зарегистрирован   [ Тип: внутренний ] Как тут cкачать?
MAGNET ссылка
MAGNET ссылка


Скачать .torrent

12 KB

Статус: проверено DHT
Скачан: торрент - 117 раз, раздача полностью - 5 раз
Размер: 2,21 GB
Оценка:  5 (Голосов: 1)
Поблагодарили: 2
Поделиться ссылкой на эту раздачу с друзьями:
В контактеFacebookОдноклассникиTwitterLivejournalМой МирLiveinternet
 

 
Показать сообщения:    


Вы не можете начинать темы
Вы не можете отвечать на сообщения
Вы не можете редактировать свои сообщения
Вы не можете удалять свои сообщения
Вы не можете голосовать в опросах
Вы не можете прикреплять файлы к сообщениям
Вы можете скачивать файлы