Loading...
Error

Скачать Мистер Питкин в больнице / A Stitch in Time (Роберт Эшер) [1963, комедия, DVDRip-AVC] [Dub] торрент без регистрации

 
Статистика раздачи
Размер:  1,82 GB   |    Скачан:  142 раза
Сидов:  1  [  0 KB/s  ]  
 
Автор Сообщение

Marsianka

[] 

Информация о фильме
Название: Мистер Питкин в больнице
Оригинальное название: A Stitch in Time
Год выхода: 1963
Жанр: комедия
Режиссер: Роберт Эшер
В ролях: Норман Уиздом, Эдвард Чэпман, Джанетт Стерк, Джерри Десмонд, Джил Мелфорд, Глин Хоустон, Хэйзел Хьюз, Пэтси Роулэндс, Питер Джонс, Эрнест Кларк

О фильме: Мистер Гримсдейл — хозяин мясной лавки, в которой работает Мистер Питкин, во время ограбления со страху проглатывает свои карманные часы. Питкин звонит в скорую помощь, и вместе с санитарами приезжает в больницу, где и начинается очередная серия смешных и нелепых приключений Питкина.
Его стремление всем угодить, везде успеть, а также стать врачом, приводит к таким последствиям, что образцовая городская больница превращается в сумасшедший дом.

Занимает 65-е место по посещаемости среди зарубежных фильмов в советском кинопрокате.





Страна: Великобритания
Продолжительность: 01:30:21
Перевод: Дублированный (Советский дубляж)

Файл
Кодек: H264
Качество: DVDRip-AVC
Видео: MPEG4 Video (H264), 1024x568, 29.97fps, 2500 Kbps
Звук: Dolby AC3, 48000 Hz, 2ch, 192 kbps - Советский дубляж
Звук: Dolby AC3, 48000 Hz, 2ch, 192 kbps - Английский

Сэмпл

General
Unique ID : 219879826430980861926234140999598194338 (0xA56B506EB0E0277F98225A27643FBEA2)
Complete name : F:Torrent 21963.Питкин в больнице.renta23.mkv
Format : Matroska
Format version : Version 4 / Version 2
File size : 1.82 GiB
Duration : 1h 30mn
Overall bit rate : 2 887 Kbps
Encoded date : UTC 2014-10-10 20:01:29
Writing application : mkvmerge v7.1.0 ('Good Love') 32bit built on Jul 27 2014 12:59:18
Writing library : libebml v1.3.0 + libmatroska v1.4.1
DURATION : 01:30:23.808000000
NUMBER_OF_FRAMES : 169494
NUMBER_OF_BYTES : 130171392
_STATISTICS_WRITING_APP : mkvmerge v7.1.0 ('Good Love') 32bit built on Jul 27 2014 12:59:18
_STATISTICS_WRITING_DATE_UTC : 2014-10-10 20:01:29
_STATISTICS_TAGS : BPS DURATION NUMBER_OF_FRAMES NUMBER_OF_BYTES

Video
ID : 1
Format : AVC
Format/Info : Advanced Video Codec
Format profile : High@L4.1
Format settings, CABAC : Yes
Format settings, ReFrames : 7 frames
Codec ID : V_MPEG4/ISO/AVC
Bit rate : 2 500 Kbps
Width : 1 024 pixels
Height : 568 pixels
Display aspect ratio : 16:9
Frame rate mode : Variable
Original frame rate : 29.970 fps
Color space : YUV
Chroma subsampling : 4:2:0
Bit depth : 8 bits
Scan type : Progressive
Bits/(Pixel*Frame) : 0.143
Title : Мистер Питкин в больнице 1963 / Rip by renta23
Writing library : x264 core 125 r2208 d9d2288
Encoding settings : cabac=1 / ref=8 / deblock=1:-1:-1 / analyse=0x3:0x133 / me=umh / subme=11 / psy=1 / psy_rd=1.15:0.25 / mixed_ref=1 / me_range=24 / chroma_me=1 / trellis=2 / 8x8dct=1 / cqm=0 / deadzone=21,11 / fast_pskip=0 / chroma_qp_offset=-4 / threads=12 / lookahead_threads=2 / sliced_threads=0 / nr=0 / decimate=1 / interlaced=0 / bluray_compat=0 / constrained_intra=0 / bframes=6 / b_pyramid=1 / b_adapt=2 / b_bias=0 / direct=3 / weightb=1 / open_gop=0 / weightp=2 / keyint=250 / keyint_min=25 / scenecut=40 / intra_refresh=0 / rc_lookahead=50 / rc=2pass / mbtree=1 / bitrate=2500 / ratetol=1.0 / qcomp=0.60 / qpmin=0 / qpmax=69 / qpstep=4 / cplxblur=20.0 / qblur=0.5 / ip_ratio=1.40 / aq=2:1.00
Language : English
Default : Yes
Forced : No

Audio #1
ID : 2
Format : AC-3
Format/Info : Audio Coding 3
Mode extension : CM (complete main)
Format settings, Endianness : Big
Codec ID : A_AC3
Duration : 1h 30mn
Bit rate mode : Constant
Bit rate : 192 Kbps
Channel(s) : 2 channels
Channel positions : Front: L R
Sampling rate : 48.0 KHz
Bit depth : 16 bits
Compression mode : Lossy
Stream size : 124 MiB (7%)
Language : Russian
Default : Yes
Forced : No

Audio #2
ID : 3
Format : AC-3
Format/Info : Audio Coding 3
Mode extension : CM (complete main)
Format settings, Endianness : Big
Codec ID : A_AC3
Duration : 1h 30mn
Bit rate mode : Constant
Bit rate : 192 Kbps
Channel(s) : 2 channels
Channel positions : Front: L R
Sampling rate : 48.0 KHz
Bit depth : 16 bits
Compression mode : Lossy
Stream size : 124 MiB (7%)
Language : English
Default : No
Forced : No

Menu
00:00:00.000 : en:Chapter 01
00:10:52.280 : en:Chapter 02
00:21:40.480 : en:Chapter 03
00:31:57.960 : en:Chapter 04
00:41:12.200 : en:Chapter 05
00:49:28.520 : en:Chapter 06
00:58:55.240 : en:Chapter 07
01:09:11.120 : en:Chapter 08
01:18:55.240 : en:Chapter 09



Скачать Мистер.Питкин.в.больнице.A.Stitch.in.Time.(Роберт.Эшер).[1963.комедия.DVDRip-AVC].[Dub].torrent без регистрации
Золото ЗОЛОТАЯ РАЗДАЧА! СКАЧАННОЕ НЕ ЗАСЧИТЫВАЕТСЯ! Золото
Дата: Зарегистрирован   [ Тип: внутренний ] Как тут cкачать?
MAGNET ссылка
MAGNET ссылка


Скачать .torrent

19 KB

Статус: проверено DHT
Скачан: торрент - 142 раз, раздача полностью - 38 раз
Размер: 1,82 GB
Оценка:  - (Голосов: 0)
Поблагодарили: 4
Поделиться ссылкой на эту раздачу с друзьями:
В контактеFacebookОдноклассникиTwitterLivejournalМой МирLiveinternet
 

 
Показать сообщения:    


Вы не можете начинать темы
Вы не можете отвечать на сообщения
Вы не можете редактировать свои сообщения
Вы не можете удалять свои сообщения
Вы не можете голосовать в опросах
Вы не можете прикреплять файлы к сообщениям
Вы можете скачивать файлы