Loading...
Error

Скачать Великое ограбление поезда / The Great Train Robbery (Сезон 01, серии 01-02 из 02) (Джулиан Джаррольд) [2013, драма, биография, HDRip] [MVO] (Sony Turbo) + Original торрент без регистрации

 
Статистика раздачи
Размер:  2,32 GB   |    Скачан:  163 раза
Сидов:  1  [  0 KB/s  ]  
 
Автор Сообщение

leon030982

[] 

Великое ограбление поезда / The Great Train Robbery


Год выпуска: 2013
Страна: Великобритания / BBC Television Centre, World Productions
Жанр: Драма, биография
Продолжительность: 2 x ~ 01:28:00
Перевод: Профессиональный (многоголосый, закадровый)
[Sony Turbo]
Русские субтитры: нет

Режиссёр: Джулиан Джаррольд, Джеймс Стронг

В ролях: Люк Эванс, Джим Бродбент, Роберт Гленистер, Джек Рот, Пол Андерсон, Мартин Компстон, Дель Синнот, Бетани Мьюир, Нил Мескэлл, Джек Гордон

Описание: Реконструкция знаменитого ограбления ночного почтового поезда, следовавшего 8 августа 1963 года из Глазго в Лондон.


Релиз от:
Запись и сведение звука - super12308
/ Семпл

Качество: HDRip
Формат: AVI
Видео кодек: XviD
Аудио кодек: MP3
Видео: XviD, ~ 1600 Кбит/с, 720x400, 25.000 кадр/с
Аудио #1: Русский (MP3, 2 ch, 128 Кбит/с)
Аудио #2: Английский (MP3, 2 ch, 128 Кбит/с)
Общее
Полное имя : F:\Великое ограбление поезда\The.Great.Train.Robbery.S01.HDRip.Rus.Eng.MediaClub\The.Great.Train.Robbery.EP1.2013.HDRip.Rus.Eng.MediaClub.avi
Формат : AVI
Формат/Информация : Audio Video Interleave
Размер файла : 1,15 Гбайт
Продолжительность : 1 ч. 27 м.
Общий поток : 1870 Кбит/сек
Название фильма : The Great Train Robbery EP01 - Сказ о разбойниках @ MediaClub.TV
Программа кодирования : VirtualDubMod 1.5.10.2 (build 2540/release)
Видео
Идентификатор : 0
Формат : MPEG-4 Visual
Профиль формата : Advanced Simple@L5
Параметр BVOP формата : 4
Параметр QPel формата : Нет
Параметр GMC формата : Без точки перехода
Параметр матрицы формата : Default (MPEG)
Идентификатор кодека : XVID
Идентификатор кодека/Подсказка : XviD
Продолжительность : 1 ч. 27 м.
Битрейт : 1600 Кбит/сек
Ширина : 720 пикселей
Высота : 400 пикселей
Соотношение сторон : 16:9
Частота кадров : 25,000 кадров/сек
Цветовое пространство : YUV
Субдискретизация насыщенности : 4:2:0
Битовая глубина : 8 бит
Тип развёртки : Прогрессивная
Метод сжатия : С потерями
Бит/(Пиксели*Кадры) : 0.222
Размер потока : 1006 Мбайт (86%)
Библиотека кодирования : XviD 1.2.1 (UTC 2008-12-04)
Аудио #1
Идентификатор : 1
Формат : MPEG Audio
Версия формата : Version 1
Профиль формата : Layer 3
Идентификатор кодека : 55
Идентификатор кодека/Подсказка : MP3
Продолжительность : 1 ч. 27 м.
Вид битрейта : Постоянный
Битрейт : 128 Кбит/сек
Каналы : 2 канала
Частота : 48,0 КГц
Метод сжатия : С потерями
Размер потока : 80,5 Мбайт (7%)
Выравнивание : Соединение по промежуткам
Продолжительность промежутка : 40 мс. (1,00 видеокадр)
Время предзагрузки промежутка : 504 мс.
Аудио #2
Идентификатор : 2
Формат : MPEG Audio
Версия формата : Version 1
Профиль формата : Layer 3
Идентификатор кодека : 55
Идентификатор кодека/Подсказка : MP3
Продолжительность : 1 ч. 27 м.
Вид битрейта : Постоянный
Битрейт : 128 Кбит/сек
Каналы : 2 канала
Частота : 48,0 КГц
Метод сжатия : С потерями
Размер потока : 80,5 Мбайт (7%)
Выравнивание : Соединение по промежуткам
Продолжительность промежутка : 40 мс. (1,00 видеокадр)
Время предзагрузки промежутка : 504 мс.
Когда раздача ведётся путём добавления новых серий, при каждом добавлении создётся новый торрент. Чтобы начать докачку новой серии, пользователям необходимо сделать следующее:
остановить скачивание,
удалить старый торрент у себя из клиента (старые серии удалять не надо),
скачать новый торрент и запустить его у себя в клиенте вместо старого, при этом указать клиенту путь в старую папку, куда и должно происходить скачивание новых серий.
Ваш клиент при этом должен произвести хеширование (проверку) старой папки (если не производит сам - помогите ему сделать это), и будет докачивать только те серии, которых у вас ещё нет. Старые серии при этом не удаляются, а продолжают раздаваться!
Eсли вы уже удалили старые серии, то предотвратить повторную закачку старых серий можно, отжав галочку в соответсвующих местах при запуске нового торрента. По возможности, желательно не удалять старые серии как можно дольше, чтобы релизёр не столько продолжал раздавать старые серии, а смог сконцентрироваться на новых.



Скачать Великое.ограбление.поезда.The.Great.Train.Robbery.(Сезон.01.серии.01-02.из.02).(Джулиан.Джаррольд).[2013.драма.биография.HDRip].[MVO].(Sony.Turbo).+.Original.torrent без регистрации
Золото ЗОЛОТАЯ РАЗДАЧА! СКАЧАННОЕ НЕ ЗАСЧИТЫВАЕТСЯ! Золото
Дата: Зарегистрирован   [ Тип: внутренний ] Как тут cкачать?
MAGNET ссылка
MAGNET ссылка


Скачать .torrent

4 KB

Статус: проверено DHT
Скачан: торрент - 163 раз, раздача полностью - 261 раз
Размер: 2,32 GB
Оценка:  5 (Голосов: 1)
Поблагодарили: 3
Поделиться ссылкой на эту раздачу с друзьями:
В контактеFacebookОдноклассникиTwitterLivejournalМой МирLiveinternet
 

 

leon030982

[] 

Код:

2 серия. Финал!
 
Показать сообщения:    


Вы не можете начинать темы
Вы не можете отвечать на сообщения
Вы не можете редактировать свои сообщения
Вы не можете удалять свои сообщения
Вы не можете голосовать в опросах
Вы не можете прикреплять файлы к сообщениям
Вы можете скачивать файлы