Loading...
Error

Скачать Полиция Гавайев / Гавайи 5.0 / Hawaii Five-0 (сезон 05) (Брэд Тернер и др.) [2014, боевик, драма, криминал, WEB-DL] [1080p] [MVO (LostFilm)]+[Eng] торрент без регистрации

 
Статистика раздачи
Размер:  44 GB   |    Скачан:  10769 раз
Сидов:  1  [  0 KB/s  ]  
 
Автор Сообщение

МихаНЕзатор

[] 

Информация о фильме
Название: Полиция Гавайев / Гавайи 5.0
Оригинальное название: Hawaii Five-0
Год выхода: 2014
Жанр: боевик, драма, криминал
Режиссер: Брэд Тернер, Дуан Кларк, Мэтт Эрл Бисли, Стив Бойум, Крис Фишер, Ларри Тенг

В ролях: Алекс О’Локлин, Скотт Каан, Дэниэл Дэ Ким, Грейс Пак, Терри О'Куинн, Тайлор Уайли, Teilor Grubbs, Маси Ока, Клер Вандер Бум, Дэннис Чун, Марк Дакаскос

О фильме: Детектив Стив МакГарретт, бывший морской офицер с массой наград, а теперь полицейский, возвращается в Оаху расследовать убийство отца. Он остается на острове, после того, как губернатор штата Гавайи убедил его возглавить новую команду. Команда будет действовать по его правилам, при поддержке губернатора, без бюрократических проволочек, и с полным иммунитетом, все это - чтобы поймать самую крупную «дичь» в городе.

К МакГаррету присоединяется детектив Дэнни «Данно» Уильямс, недавно переведенный из Нью-Джерси полицейский, который предпочел бы небоскребы пляжам, но готов бороться с преступностью, чтобы его 8-летняя дочь чувствовала себя на островах в безопасности; и Чин Хо Келли, бывший детектив полиции Гонолулу, которого ошибочно обвинили в коррупции, и который когда-то был протеже отца МакГаррета. Двоюродная сестра Чина, Коно, прекрасная и бесстрашная уроженка островов, недавно выпустилась из академии, и рвется доказать, что она достойна места в элите департамента. МакГаррет клянется завершить дело отца, а члены нового спецотряда Five-O, может, и грызутся друг с другом, но настроены уничтожить преступность в пятидесятом штате.



Страна: США
Продолжительность: ~ 00:45:00
Перевод: Профессиональный многоголосый закадровый, LostFilm|

Озвучка: Студия "LostFilm"
Работа со звуком: vlaluk
Раздача существует благодаря спонсорской поддержке PyotrI

Файл
Видео: 1920x1080 (16:9), 23.976 fps, ~ 5000 kbps, ~0.095 bit/pixel
Аудио Rus: 48 kHz, 2, 6 ch, ~384 kbps |LostFilm|
Аудио Eng: 48 kHz, 6 ch, ~384 kbps |Original|

АНОНСЫ ПОПУЛЯРНЫХ РАЗДАЧ


Торрент обновлён, добавлена 25-я серия!

01. Некуда бежать / A'ohe Kahi e Pe'e Ai
02. Семьянин / Ka Makuakane
03. Последняя волна / Kanalu Hope Loa
04. Маляр / Ka No'eau
05. Наследие / Ho'oilina
06. Маски сброшены / Ho'oma'ike
07. Если бы / Ina Paha
08. Дело рук своих / Ka Hana Malu
09. Шансы невысоки / Ke Koho Mamao Aku
10. Разбитые мечты / Wawahi moe'uhane
11. Краденое / Ua'aihue
12. Не забытые / Poina 'ole
13. Судный день / La Po'ino
14. Отключка / Powehiwehi
15. В поисках правды / E 'Imi pono
16. Пепел / Nanahu
17. Слежка / Kuka'awale
18. Правосудие для всех / Pono Kaulike
19. На волоске / Kahania
20. Инстинкт / Ike Hanau
21. Упавшая звезда / Ua helele'i ka hoku
22. В погоне за вчерашним днём / Ho'amoano
23. Передавая традиции / Mo'o'olelo Pu
24. Добыча / Luapo'i
25. Пока мы живы / A Make Kaua

Золотой глобус, 2011 год
Номинации (1):
Лучший актёр второго плана мини-сериала или фильма на ТВ (Скотт Каан)

Общее
Уникальный идентификатор : 226790228791011481539973768205454948764 (0xAA9E3592DEA62B998247FE1288E2399C)
Полное имя : Hawaii.Five-0.US.S05.1080p.WEB-DLHawaii.Five-0.S05E05.1080p.WEB-DL.Rus.Eng.mkv
Формат : Matroska
Версия формата : Version 4 / Version 2
Размер файла : 1,73 Гбайт
Продолжительность : 44 м.
Общий поток : 5578 Кбит/сек
Название фильма : создано при поддержке PyotrI
Дата кодирования : UTC 2014-10-29 22:09:15
Программа кодирования : mkvmerge v6.9.1 ('Blue Panther') 64bit built on Apr 18 2014 18:23:38
Библиотека кодирования : libebml v1.3.0 + libmatroska v1.4.1

Видео
Идентификатор : 1
Формат : AVC
Формат/Информация : Advanced Video Codec
Профиль формата : High@L4.0
Параметр CABAC формата : Да
Параметр ReFrames формата : 4 кадра
Идентификатор кодека : V_MPEG4/ISO/AVC
Продолжительность : 44 м.
Битрейт : 4699 Кбит/сек
Ширина : 1920 пикселей
Высота : 1080 пикселей
Соотношение сторон : 16:9
Режим частоты кадров : Постоянный
Частота кадров : 23,976 кадра/сек
Цветовое пространство : YUV
Субдискретизация насыщенности : 4:2:0
Битовая глубина : 8 бит
Тип развёртки : Прогрессивная
Бит/(Пиксели*Кадры) : 0.095
Размер потока : 1,45 Гбайт (84%)
Заголовок : Season 5, Episode 05: Ho'oilina / Наследие
Язык : English
Default : Да
Forced : Нет
Основные цвета : BT.709
Характеристики трансфера : BT.709
Коэффициенты матрицы : BT.709

Аудио #1
Идентификатор : 2
Формат : AC-3
Формат/Информация : Audio Coding 3
Расширение режима : CM (complete main)
Параметр Endianness формата : Big
Идентификатор кодека : A_AC3
Продолжительность : 44 м.
Вид битрейта : Постоянный
Битрейт : 384 Кбит/сек
Каналы : 6 каналов
Расположение каналов : Front: L C R, Side: L R, LFE
Частота : 48,0 КГц
Битовая глубина : 16 бит
Метод сжатия : С потерями
Размер потока : 122 Мбайт (7%)
Заголовок : DD 5.1 @ 384 kbps @ LostFilm
Язык : Russian
Default : Да
Forced : Нет

Аудио #2
Идентификатор : 3
Формат : AC-3
Формат/Информация : Audio Coding 3
Расширение режима : CM (complete main)
Параметр Endianness формата : Big
Идентификатор кодека : A_AC3
Продолжительность : 44 м.
Вид битрейта : Постоянный
Битрейт : 384 Кбит/сек
Каналы : 6 каналов
Расположение каналов : Front: L C R, Side: L R, LFE
Частота : 48,0 КГц
Битовая глубина : 16 бит
Метод сжатия : С потерями
Размер потока : 122 Мбайт (7%)
Заголовок : DD 5.1 @ 384 kbps
Язык : English
Default : Нет
Forced : Нет

Текст
Идентификатор : 4
Формат : UTF-8
Идентификатор кодека : S_TEXT/UTF8
Идентификатор кодека/Информация : UTF-8 Plain Text
Заголовок : English @ SRT
Язык : English
Default : Нет
Forced : Нет



Скачать Полиция.Гавайев.Гавайи.5.0.Hawaii.Five-0.(сезон.05).(Брэд.Тернер.и.др.).[2014.боевик.драма.криминал.WEB-DL].[1080p].[MVO.(LostFilm)]+[Eng].torrent без регистрации
Золото ЗОЛОТАЯ РАЗДАЧА! СКАЧАННОЕ НЕ ЗАСЧИТЫВАЕТСЯ! Золото
Дата: Зарегистрирован   [ Тип: внутренний ] Как тут cкачать?
MAGNET ссылка
MAGNET ссылка


Скачать .torrent

58 KB

Статус: проверено DHT
Скачан: торрент - 10769 раз, раздача полностью - 1 раз
Размер: 44 GB
Оценка:  - (Голосов: 0)
Поблагодарили: 0
Поделиться ссылкой на эту раздачу с друзьями:
В контактеFacebookОдноклассникиTwitterLivejournalМой МирLiveinternet
 

 
Показать сообщения:    


Вы не можете начинать темы
Вы не можете отвечать на сообщения
Вы не можете редактировать свои сообщения
Вы не можете удалять свои сообщения
Вы не можете голосовать в опросах
Вы не можете прикреплять файлы к сообщениям
Вы можете скачивать файлы