Loading...
Error

Скачать Полиция Гавайев / Гавайи 5.0 / Hawaii Five-0 (сезон 05) (Брэд Тернер и др.) [2014, боевик, драма, криминал, WEB-DLRip] [MVO (LostFilm)]+[Eng]+[Sub Eng] торрент без регистрации

 
Статистика раздачи
Размер:  21,41 GB   |    Скачан:  3178 раз
Сидов:  1  [  0 KB/s  ]  
 
Автор Сообщение

МихаНЕзатор

[] 

Информация о фильме
Название: Полиция Гавайев / Гавайи 5.0
Оригинальное название: Hawaii Five-0
Год выхода: 2014
Жанр: боевик, драма, криминал
Режиссер: Брэд Тернер, Дуан Кларк, Мэтт Эрл Бисли, Стив Бойум, Крис Фишер, Ларри Тенг


В ролях: Алекс О’Локлин, Скотт Каан, Дэниэл Дэ Ким, Грейс Пак, Терри О'Куинн, Тайлор Уайли, Teilor Grubbs, Маси Ока, Клер Вандер Бум, Дэннис Чун, Марк Дакаскос



О фильме: Детектив Стив МакГарретт, бывший морской офицер с массой наград, а теперь полицейский, возвращается в Оаху расследовать убийство отца. Он остается на острове, после того, как губернатор штата Гавайи убедил его возглавить новую команду. Команда будет действовать по его правилам, при поддержке губернатора, без бюрократических проволочек, и с полным иммунитетом, все это - чтобы поймать самую крупную «дичь» в городе.

К МакГаррету присоединяется детектив Дэнни «Данно» Уильямс, недавно переведенный из Нью-Джерси полицейский, который предпочел бы небоскребы пляжам, но готов бороться с преступностью, чтобы его 8-летняя дочь чувствовала себя на островах в безопасности; и Чин Хо Келли, бывший детектив полиции Гонолулу, которого ошибочно обвинили в коррупции, и который когда-то был протеже отца МакГаррета. Двоюродная сестра Чина, Коно, прекрасная и бесстрашная уроженка островов, недавно выпустилась из академии, и рвется доказать, что она достойна места в элите департамента. МакГаррет клянется завершить дело отца, а члены нового спецотряда Five-O, может, и грызутся друг с другом, но настроены уничтожить преступность в пятидесятом штате.


Релиз от:


Страна: США
Продолжительность: ~ 00:45:00
Перевод: Профессиональный многоголосый закадровый, LostFilm|

Файл
Кодек: XviD
Качество: WEB-DLRip
Видео: ~ 2000 Кбит/с, 720x400, 23.976 кадр/с
Звук:
Аудио#1: Russian: 48 kHz, AC3, 3/2 (L,C,R,l,r) + LFE ch, ~384.00 kbps avg |Многоголосый закадровый, LostFilm|
Аудио#2: English: 48 kHz, AC3, 3/2 (L,C,R,l,r) + LFE ch, ~384.00 kbps avg
Субтитры: English

Дорожка №1 получена наложением выделенного голоса на центр декодированного AC3.

Работа со звуком: vlaluk
Рип: ЛП
Перевод: Петр Чайников

АНОНСЫ ПОПУЛЯРНЫХ РАЗДАЧ


Торрент обновлён, добавлена 25-я серия!

Золотой глобус, 2011 год
Номинации (1):
Лучший актёр второго плана мини-сериала или фильма на ТВ (Скотт Каан)

01. Некуда бежать / A'ohe Kahi e Pe'e Ai
02. Семьянин / Ka Makuakane
03. Последняя волна / Kanalu Hope Loa
04. Маляр / Ka No'eau
05. Наследие / Ho'oilina
06. Маски сброшены / Ho'oma'ike
07. Если бы / Ina Paha
08. Дело рук своих / Ka Hana Malu
09. Шансы невысоки / Ke Koho Mamao Aku
10. Разбитые мечты / Wawahi moe'uhane
11. Краденое / Ua'aihue
12. Не забытые / Poina 'ole
13. Судный день / La Po'ino
14. Отключка / Powehiwehi
15. В поисках правды / E 'Imi pono
16. Пепел / Nanahu
17. Слежка / Kuka'awale
18. Правосудие для всех / Pono Kaulike

Общее
Полное имя : Hawaii Five-0 Season 5 CasStudio.TVEng SubsHawaii.Five-0.s05e01.rus.eng.CasStudio.TV.srt
Формат : SubRip
Размер файла : 68,6 Кбайт

Текст
Формат : SubRip
Метод сжатия : Без потерь

Общее
Полное имя : Hawaii Five-0 Season 5 CasStudio.TVHawaii.Five-0.s05e01.rus.eng.CasStudio.TV.avi
Формат : AVI
Формат/Информация : Audio Video Interleave
Размер файла : 915 Мбайт
Продолжительность : 43 м.
Общий поток : 2915 Кбит/сек
Программа кодирования : VirtualDubMod 1.5.10.2 (build 2540/release)
Библиотека кодирования : VirtualDubMod build 2540/release

Видео
Идентификатор : 0
Формат : MPEG-4 Visual
Профиль формата : Advanced Simple@L5
Параметр BVOP формата : 1
Параметр QPel формата : Нет
Параметр GMC формата : Без точки перехода
Параметр матрицы формата : Default (MPEG)
Идентификатор кодека : XVID
Идентификатор кодека/Подсказка : XviD
Продолжительность : 43 м.
Битрейт : 2133 Кбит/сек
Ширина : 720 пикселей
Высота : 400 пикселей
Соотношение сторон : 16:9
Частота кадров : 23,976 кадра/сек
Цветовое пространство : YUV
Субдискретизация насыщенности : 4:2:0
Битовая глубина : 8 бит
Тип развёртки : Прогрессивная
Метод сжатия : С потерями
Бит/(Пиксели*Кадры) : 0.309
Размер потока : 669 Мбайт (73%)
Библиотека кодирования : XviD 65

Аудио #1
Идентификатор : 1
Формат : AC-3
Формат/Информация : Audio Coding 3
Расширение режима : CM (complete main)
Параметр Endianness формата : Big
Идентификатор кодека : 2000
Продолжительность : 43 м.
Вид битрейта : Постоянный
Битрейт : 384 Кбит/сек
Каналы : 6 каналов
Расположение каналов : Front: L C R, Side: L R, LFE
Частота : 48,0 КГц
Битовая глубина : 16 бит
Метод сжатия : С потерями
Размер потока : 120 Мбайт (13%)
Выравнивание : Разделение по промежуткам
Продолжительность промежутка : 42 мс. (1,00 видеокадр)
Время предзагрузки промежутка : 500 мс.

Аудио #2
Идентификатор : 2
Формат : AC-3
Формат/Информация : Audio Coding 3
Расширение режима : CM (complete main)
Параметр Endianness формата : Big
Идентификатор кодека : 2000
Продолжительность : 43 м.
Вид битрейта : Постоянный
Битрейт : 384 Кбит/сек
Каналы : 6 каналов
Расположение каналов : Front: L C R, Side: L R, LFE
Частота : 48,0 КГц
Битовая глубина : 16 бит
Метод сжатия : С потерями
Размер потока : 120 Мбайт (13%)
Выравнивание : Разделение по промежуткам
Продолжительность промежутка : 42 мс. (1,00 видеокадр)
Время предзагрузки промежутка : 500 мс.



Скачать Полиция.Гавайев.Гавайи.5.0.Hawaii.Five-0.(сезон.05).(Брэд.Тернер.и.др.).[2014.боевик.драма.криминал.WEB-DLRip].[MVO.(LostFilm)]+[Eng]+[Sub.Eng].torrent без регистрации
Золото ЗОЛОТАЯ РАЗДАЧА! СКАЧАННОЕ НЕ ЗАСЧИТЫВАЕТСЯ! Золото
Дата: Зарегистрирован   [ Тип: внутренний ] Как тут cкачать?
MAGNET ссылка
MAGNET ссылка


Скачать .torrent

58 KB

Статус: проверено DHT
Скачан: торрент - 3178 раз, раздача полностью - 5 раз
Размер: 21,41 GB
Оценка:  - (Голосов: 0)
Поблагодарили: 0
Поделиться ссылкой на эту раздачу с друзьями:
В контактеFacebookОдноклассникиTwitterLivejournalМой МирLiveinternet
 

 
Показать сообщения:    


Вы не можете начинать темы
Вы не можете отвечать на сообщения
Вы не можете редактировать свои сообщения
Вы не можете удалять свои сообщения
Вы не можете голосовать в опросах
Вы не можете прикреплять файлы к сообщениям
Вы можете скачивать файлы