Loading...
Error

Скачать Крулл / Krull (Питер Йетс) [1983, фантастика, фэнтези, боевик, приключения, BDRip] [MVO] торрент без регистрации

 
Статистика раздачи
Размер:  2,18 GB   |    Скачан:  100 раз
Сидов:  1  [  0 KB/s  ]  
 
Автор Сообщение

Marsianka

[] 

Информация о фильме
Название: Крулл
Оригинальное название: Krull
Год выхода: 1983
Жанр: фантастика, фэнтези, боевик, приключения
Режиссер: Питер Йетс
В ролях: Кен Маршалл, Лизетт Энтони, Фредди Джоунс, Франческа Эннис, Алан Армстронг, Дэвид Бэттли, Робби Колтрейн, Бернард Бресслоу, Лиам Нисон, Джон Уэлш, Грэхэм МакГрат

О фильме:
На самом краю Вселенной находится планета Крулл, переживающая время, отдаленно напоминающее Средневековье, когда наследники двух великих правителей — принц Кольвин и принцесса Лисса — решили сыграть свадьбу, что должно было означать заключение мира между двумя державами. Торжественная церемония была прервана вторжением извне армии инопланетных убийц во главе с Чудовищем. На замок, где и было решено устроить церемонию бракосочетания, напал отряд убийц, который не только убил королей Трулорда и Эйрига, но покончил вмиг со всеми стражами, слугами, гостями, а главное был тяжело ранен Кольвин, а Лисса была похищена. Все могло бы окончиться весьма трагично, если бы на помощь наследному принцу не пришел Инир, мудрый целитель и провидец. Он вылечил Кольвина и рассказал ему, что где-то очень далеко как из-под земли выросла огромная чёрная крепость — то самое место, откуда убийцы совершали набеги на мирное население, и куда похитители увезли Лиссу. Принц решается отправиться на её поиски немедленно, но Инир говорит, что Чудовище — их новый враг — куда сильнее, чем кто-либо, и чтобы победить его, потребуется любая помощь, в том числе и та, что была спрятана от человеских глаз ещё в стародавние времена… Принц Колвина отправляется на поиски легендарного Глейва (что-то типа метательной звезды в бриллиантах) с целью исправить положение вещей...




Страна: Великобритания, США / Columbia Pictures, Barclays Mercantile Industrial Finance
Продолжительность: 02:00:51
Перевод: Профессиональный многоголосый

Файл
Качество: BDRip
Видео: XviD, 1993 Кбит/с, 720x304, 23.976 кадр/с
Аудио #1: Русский (AC3, 2 ch, 192 Кбит/с) / Профессиональный многоголосый (НТВ+)
Аудио #2: Английский (AC3, 6 ch, 384 Кбит/с)
Продолжительность: 02:00:51

Семпл
Format : AVI
Format/Info : Audio Video Interleave
Format profile : OpenDML
File size : 2.18 GiB
Duration : 2h 0mn
Overall bit rate : 2 587 Kbps
Movie name : Krull.1983.DUAL.BDRip.XviD.AC3.- MediaClub
Director : Encode by Odessit
Writing application : VirtualDubMod 1.5.10.3 | www.virtualdub-fr.org || (build 2550/release)
Writing library : VirtualDubMod build 2550/release

Video
ID : 0
Format : MPEG-4 Visual
Format profile : Advanced Simple@L5
Format settings, BVOP : 1
Format settings, QPel : No
Format settings, GMC : No warppoints
Format settings, Matrix : Custom
Codec ID : XVID
Codec ID/Hint : XviD
Duration : 2h 0mn
Bit rate : 1 993 Kbps
Width : 720 pixels
Height : 304 pixels
Display aspect ratio : 2.35:1
Frame rate : 23.976 fps
Color space : YUV
Chroma subsampling : 4:2:0
Bit depth : 8 bits
Scan type : Progressive
Compression mode : Lossy
Bits/(Pixel*Frame) : 0.380
Stream size : 1.68 GiB (77%)
Writing library : XviD 73

Audio #1
ID : 1
Format : AC-3
Format/Info : Audio Coding 3
Mode extension : CM (complete main)
Codec ID : 2000
Duration : 2h 0mn
Bit rate mode : Constant
Bit rate : 192 Kbps
Channel(s) : 2 channels
Channel positions : Front: L R
Sampling rate : 48.0 KHz
Bit depth : 16 bits
Compression mode : Lossy
Stream size : 166 MiB (7%)
Alignment : Split accross interleaves
Interleave, duration : 42 ms (1.00 video frame)
Interleave, preload duration : 500 ms

Audio #2
ID : 2
Format : AC-3
Format/Info : Audio Coding 3
Mode extension : CM (complete main)
Codec ID : 2000
Duration : 2h 0mn
Bit rate mode : Constant
Bit rate : 384 Kbps
Channel(s) : 6 channels
Channel positions : Front: L C R, Side: L R, LFE
Sampling rate : 48.0 KHz
Bit depth : 16 bits
Compression mode : Lossy
Stream size : 332 MiB (15%)
Alignment : Split accross interleaves
Interleave, duration : 42 ms (1.00 video frame)
Interleave, preload duration : 500 ms
Релиз от: |



Скачать Крулл.Krull.(Питер.Йетс).[1983.фантастика.фэнтези.боевик.приключения.BDRip].[MVO].torrent без регистрации
Золото ЗОЛОТАЯ РАЗДАЧА! СКАЧАННОЕ НЕ ЗАСЧИТЫВАЕТСЯ! Золото
Дата: Зарегистрирован   [ Тип: внутренний ] Как тут cкачать?
MAGNET ссылка
MAGNET ссылка


Скачать .torrent

12 KB

Статус: проверено DHT
Скачан: торрент - 100 раз, раздача полностью - 7 раз
Размер: 2,18 GB
Оценка:  - (Голосов: 0)
Поблагодарили: 3
Поделиться ссылкой на эту раздачу с друзьями:
В контактеFacebookОдноклассникиTwitterLivejournalМой МирLiveinternet
 

 
Показать сообщения:    


Вы не можете начинать темы
Вы не можете отвечать на сообщения
Вы не можете редактировать свои сообщения
Вы не можете удалять свои сообщения
Вы не можете голосовать в опросах
Вы не можете прикреплять файлы к сообщениям
Вы можете скачивать файлы