Loading...
Error

Глубокий порез / Smash Cut (Ли Демарбр) [2009, Зарубежный фильм, Комедия, Ужасы, BDRip][720p]

 
Автор Сообщение

DomoseD2014

[] 


Глубокий порез / Smash Cut


Год выпуска: 2009
Выпущено: Канада
Жанр: Зарубежный фильм, Комедия, Ужасы
Продолжительность: 1:26:22
Перевод: Профессиональный (многоголосый)
Субтитры: Русские, украинские

Режиссер: Ли Демарбр

В ролях: Дэвид Хесс, Джесси Бак, Майкл Берриман, Рэй Сейджер, Саша Грэй, Бэрри Блейк, Питер Майкл Диллон, Дженнили Мюррэй, Майкл Дубю, Париза Касаи

Описание: Очередная попытка снять фильм заканчивается неудачей. Режиссер Эйбл Уитман с горя отправляется в стриптиз клуб, где снимает одну из девочек по имени Гиги. Он везет ее к себе домой, но по дороге происходит несчастный случай, в результате которого девушка погибает. Глядя на труп стриптизерши, в голову Эйблу приходит «гениальная» идея: использовать части дела Гиги для съемок своего нового фильма ужасов. Коллеги горячо поддерживают идею режиссера. Вскоре Уитман понимает, что для съемок фильма требуется куда больше мертвых девушек…







Качество: BDRip 720p
Формат: MKV
Видео кодек: H.264
Аудио кодек: AC3
Видео: 1280 x 720 (1.778) at 23.976 fps
Аудио: Профессиональный (многоголосый закадровый) R5 (AC-3 at 384 Кбит/сек)

Общее
Уникальный идентификатор : 203581847023922749990591710808689377548 (0x9928700213E531C9AD7DA3409288810C)
Полное имя : C:\Users\Паша\Videos\Кодированное\Глубокий порез.mkv
Формат : Matroska
Версия формата : Version 4 / Version 2
Размер файла : 2,04 Гбайт
Продолжительность : 1 ч. 26 м.
Общий поток : 3384 Кбит/сек
Дата кодирования : UTC 2014-10-17 14:59:57
Программа кодирования : mkvmerge v7.1.0 ('Good Love') 64bit built on Jul 27 2014 13:06:55
Библиотека кодирования : libebml v1.3.0 + libmatroska v1.4.1
Attachements : poster.jpg
_STATISTICS_WRITING_APP : mkvmerge v7.1.0 ('Good Love') 64bit built on Jul 27 2014 13:06:55
_STATISTICS_WRITING_DATE_UTC : 2014-10-17 14:59:57
_STATISTICS_TAGS : BPS DURATION NUMBER_OF_FRAMES NUMBER_OF_BYTES
DURATION : 01:26:22.177000000
NUMBER_OF_FRAMES : 124248
NUMBER_OF_BYTES : 1941682433

Видео
Идентификатор : 1
Формат : AVC
Формат/Информация : Advanced Video Codec
Профиль формата : High@L4.1
Параметр CABAC формата : Да
Параметр ReFrames формата : 8 кадров
Идентификатор кодека : V_MPEG4/ISO/AVC
Продолжительность : 1 ч. 26 м.
Битрейт : 3000 Кбит/сек
Ширина : 1280 пикселей
Высота : 720 пикселей
Соотношение сторон : 16:9
Режим частоты кадров : Постоянный
Частота кадров : 23,976 кадра/сек
Цветовое пространство : YUV
Субдискретизация насыщенности : 4:2:0
Битовая глубина : 8 бит
Тип развёртки : Прогрессивная
Бит/(Пиксели*Кадры) : 0.136
Размер потока : 1,77 Гбайт (87%)
Библиотека кодирования : x264 core 142 r2479kMod dd79a61
Настройки программы : cabac=1 / ref=9 / deblock=1:0:0 / analyse=0x3:0x133 / me=umh / subme=9 / psy=1 / fade_compensate=0.00 / psy_rd=1.00:0.00 / mixed_ref=1 / me_range=25 / chroma_me=1 / trellis=1 / 8x8dct=1 / cqm=0 / deadzone=21,11 / fast_pskip=1 / chroma_qp_offset=-2 / threads=7 / lookahead_threads=1 / sliced_threads=0 / nr=0 / decimate=1 / interlaced=0 / bluray_compat=0 / constrained_intra=0 / fgo=0 / bframes=6 / b_pyramid=1 / b_adapt=0 / b_bias=0 / direct=3 / weightb=1 / open_gop=0 / weightp=2 / keyint=250 / keyint_min=25 / scenecut=40 / intra_refresh=0 / rc_lookahead=40 / rc=2pass / mbtree=1 / bitrate=3000 / ratetol=1.0 / qcomp=0.60 / qpmin=0 / qpmax=69 / qpstep=4 / cplxblur=20.0 / qblur=0.5 / ip_ratio=1.40 / aq=1:1.00
Default : Да
Forced : Нет

Аудио
Идентификатор : 2
Формат : AC-3
Формат/Информация : Audio Coding 3
Расширение режима : CM (complete main)
Параметр Endianness формата : Big
Идентификатор кодека : A_AC3
Продолжительность : 1 ч. 26 м.
Вид битрейта : Постоянный
Битрейт : 384 Кбит/сек
Каналы : 6 каналов
Расположение каналов : Front: L C R, Side: L R, LFE
Частота : 48,0 КГц
Битовая глубина : 16 бит
Метод сжатия : С потерями
Размер потока : 237 Мбайт (11%)
Заголовок : MVO, R5
Язык : Russian
Default : Да
Forced : Нет

Текст #1
Идентификатор : 3
Формат : UTF-8
Идентификатор кодека : S_TEXT/UTF8
Идентификатор кодека/Информация : UTF-8 Plain Text
Язык : Russian
Default : Нет
Forced : Нет

Текст #2
Идентификатор : 4
Формат : UTF-8
Идентификатор кодека : S_TEXT/UTF8
Идентификатор кодека/Информация : UTF-8 Plain Text
Язык : Ukrainian
Default : Нет
Forced : Нет







 
Показать сообщения:    


Вы не можете начинать темы
Вы не можете отвечать на сообщения
Вы не можете редактировать свои сообщения
Вы не можете удалять свои сообщения
Вы не можете голосовать в опросах
Вы не можете прикреплять файлы к сообщениям
Вы можете скачивать файлы