Loading...
Error

Скачать Последняя гонка / The Last Run (Ричард Флайшер) [1971, триллер, боевик, DVDRip-AVC] [DVO] торрент без регистрации

 
Статистика раздачи
Размер:  1,06 GB   |    Скачан:  97 раз
Сидов:  1  [  0 KB/s  ]  
 
Автор Сообщение

Marsianka

[] 

Информация о фильме
Название: Последняя гонка
Оригинальное название: The Last Run
Год выхода: 1971
Жанр: триллер, боевик
Режиссер: Ричард Флайшер / Richard Fleischer
В ролях:
Джордж К. Скотт / George C. Scott... Harry Garmes
Тони Мюзанте / Tony Musante... Paul Rickard
Триш Ван Девере / Trish Van Devere... Claudie Scherrer
Коллин Дьюхёрст / Colleen Dewhurst... Monique
Альдо Самбрелл / Aldo Sambrell... Miguel
Антонио Тарруэлла / Antonio Tarruella ... Motorcycle Policeman
Роберт Коулби / Robert Coleby... Hitch Hiker

О фильме:
Гарри Гармс, некогда связанный с преступным миром Чикаго, живет один в португальской рыбацкой деревушке. После 9 лет бездействия он решает выполнить последний контракт, чтобы самому себе доказать, что он еще на это способен. Он должен сопроводить из Испании во Францию человека по имени Поль Рикар, сбежавшего из тюрьмы…



Страна: США
Студия: MGM
Продолжительность: 01:35:13.708
Перевод: Профессиональный (двухголосый закадровый) ВГТРК (Россия 1), 2011-й год

Файл
Кодек: h.264
Качество: DVDRip-AVC
Видео: 720x352 (2.35:1) @ 834x352 (анаморф), 23.976 fps, AVC, ~1333 Kbps, 0.219 bits/pixel

Исходник R1 Warner Archive Collection
Русский, 48.0 KHz, AC3, 1 ch, 128 Kbps
Английский, 48.0 KHz, AC3, 1 ch, 128 Kbps
Субтитры: нет
бщее
Уникальный идентификатор : 177432568956338418001926331962521003609 (0x857C450F66C155BE84B561AB2CCBA659)
Полное имя : H:FilmsPoslednaya_Gonka.1971.DVDRip-AVC.mkv
Формат : Matroska
Версия формата : Version 4 / Version 2
Размер файла : 1,06 Гбайт
Продолжительность : 1 ч. 35 м.
Общий поток : 1590 Кбит/сек
Дата кодирования : UTC 2014-10-17 20:48:24
Программа кодирования : mkvmerge v7.2.0 ('On Every Street') 64bit built on Sep 13 2014 15:52:10
Библиотека кодирования : libebml v1.3.0 + libmatroska v1.4.1
DURATION : 01:35:13.696000000
NUMBER_OF_FRAMES : 178553
NUMBER_OF_BYTES : 91419136
_STATISTICS_WRITING_APP : mkvmerge v7.2.0 ('On Every Street') 64bit built on Sep 13 2014 15:52:10
_STATISTICS_WRITING_DATE_UTC : 2014-10-17 20:48:24
_STATISTICS_TAGS : BPS DURATION NUMBER_OF_FRAMES NUMBER_OF_BYTES

Видео
Идентификатор : 1
Формат : AVC
Формат/Информация : Advanced Video Codec
Профиль формата : High@L4.1
Параметр CABAC формата : Да
Параметр ReFrames формата : 16 кадров
Идентификатор кодека : V_MPEG4/ISO/AVC
Продолжительность : 1 ч. 35 м.
Битрейт : 1333 Кбит/сек
Ширина : 720 пикселей
Высота : 352 пикселя
Соотношение сторон : 2,35:1
Соотношение сторон в оригинале : 2,40:1
Режим частоты кадров : Постоянный
Частота кадров : 23,976 кадра/сек
Цветовое пространство : YUV
Субдискретизация насыщенности : 4:2:0
Битовая глубина : 8 бит
Тип развёртки : Прогрессивная
Бит/(Пиксели*Кадры) : 0.219
Размер потока : 887 Мбайт (82%)
Библиотека кодирования : x264 core 142 r2431 ac76440
Настройки программы : cabac=1 / ref=16 / deblock=1:0:0 / analyse=0x3:0x133 / me=umh / subme=10 / psy=1 / psy_rd=1.10:0.10 / mixed_ref=1 / me_range=32 / chroma_me=1 / trellis=2 / 8x8dct=1 / cqm=0 / deadzone=21,11 / fast_pskip=0 / chroma_qp_offset=-3 / threads=8 / lookahead_threads=2 / sliced_threads=0 / nr=0 / decimate=0 / interlaced=0 / bluray_compat=0 / constrained_intra=0 / bframes=15 / b_pyramid=2 / b_adapt=2 / b_bias=0 / direct=3 / weightb=1 / open_gop=0 / weightp=2 / keyint=240 / keyint_min=23 / scenecut=60 / intra_refresh=0 / rc_lookahead=60 / rc=2pass / mbtree=0 / bitrate=1333 / ratetol=1.0 / qcomp=0.60 / qpmin=0 / qpmax=69 / qpstep=4 / cplxblur=20.0 / qblur=0.5 / vbv_maxrate=50000 / vbv_bufsize=62500 / nal_hrd=none / filler=0 / ip_ratio=1.40 / pb_ratio=1.30 / aq=1:1.00
Default : Нет
Forced : Нет
Коэффициенты матрицы : BT.601
DURATION : 01:35:13.708000000
NUMBER_OF_FRAMES : 136992
NUMBER_OF_BYTES : 951609887
_STATISTICS_WRITING_APP : mkvmerge v7.2.0 ('On Every Street') 64bit built on Sep 13 2014 15:52:10
_STATISTICS_WRITING_DATE_UTC : 2014-10-17 20:48:24
_STATISTICS_TAGS : BPS DURATION NUMBER_OF_FRAMES NUMBER_OF_BYTES

Аудио #1
Идентификатор : 2
Формат : AC-3
Формат/Информация : Audio Coding 3
Расширение режима : CM (complete main)
Параметр Endianness формата : Big
Идентификатор кодека : A_AC3
Продолжительность : 1 ч. 35 м.
Вид битрейта : Постоянный
Битрейт : 128 Кбит/сек
Каналы : 1 канал
Расположение каналов : Front: C
Частота : 48,0 КГц
Битовая глубина : 16 бит
Метод сжатия : С потерями
Размер потока : 87,2 Мбайт (8%)
Язык : Russian
Default : Да
Forced : Нет

Аудио #2
Идентификатор : 3
Формат : AC-3
Формат/Информация : Audio Coding 3
Расширение режима : CM (complete main)
Параметр Endianness формата : Big
Идентификатор кодека : A_AC3
Продолжительность : 1 ч. 35 м.
Вид битрейта : Постоянный
Битрейт : 128 Кбит/сек
Каналы : 1 канал
Расположение каналов : Front: C
Частота : 48,0 КГц
Битовая глубина : 16 бит
Метод сжатия : С потерями
Размер потока : 87,2 Мбайт (8%)
Язык : English
Default : Нет
Forced : Нет

Меню
00:00:00.000 : en:Chapter 01
00:02:55.000 : en:Chapter 02
00:05:56.000 : en:Chapter 03
00:08:50.000 : en:Chapter 04
00:13:04.000 : en:Chapter 05
00:17:24.000 : en:Chapter 06
00:20:26.000 : en:Chapter 07
00:22:46.000 : en:Chapter 08
00:27:03.000 : en:Chapter 09
00:31:10.000 : en:Chapter 10
00:34:04.000 : en:Chapter 11
00:37:45.000 : en:Chapter 12
00:41:58.000 : en:Chapter 13
00:47:09.000 : en:Chapter 14
00:50:26.000 : en:Chapter 15
00:53:14.000 : en:Chapter 16
01:00:17.000 : en:Chapter 17
01:04:52.000 : en:Chapter 18
01:06:38.000 : en:Chapter 19
01:09:35.000 : en:Chapter 20
01:12:08.000 : en:Chapter 21
01:13:58.000 : en:Chapter 22
01:17:50.000 : en:Chapter 23
01:21:57.000 : en:Chapter 24
01:24:39.000 : en:Chapter 25
01:26:30.000 : en:Chapter 26
01:29:07.000 : en:Chapter 27
01:31:03.000 : en:Chapter 28
01:33:22.000 : en:Chapter 29
01:34:31.000 : en:Chapter 30
Релиз от: Temperest



Скачать Последняя.гонка.The.Last.Run.(Ричард.Флайшер).[1971.триллер.боевик.DVDRip-AVC].[DVO].torrent без регистрации
Золото ЗОЛОТАЯ РАЗДАЧА! СКАЧАННОЕ НЕ ЗАСЧИТЫВАЕТСЯ! Золото
Дата: Зарегистрирован   [ Тип: внутренний ] Как тут cкачать?
MAGNET ссылка
MAGNET ссылка


Скачать .torrent

11 KB

Статус: проверено DHT
Скачан: торрент - 97 раз, раздача полностью - 0 раз
Размер: 1,06 GB
Оценка:  - (Голосов: 0)
Поблагодарили: 1
Поделиться ссылкой на эту раздачу с друзьями:
В контактеFacebookОдноклассникиTwitterLivejournalМой МирLiveinternet
 

 
Показать сообщения:    


Вы не можете начинать темы
Вы не можете отвечать на сообщения
Вы не можете редактировать свои сообщения
Вы не можете удалять свои сообщения
Вы не можете голосовать в опросах
Вы не можете прикреплять файлы к сообщениям
Вы можете скачивать файлы