Loading...
Error

Скачать Кукольный дом / A Doll's House (Патрик Гарлэнд) [1973, драма, DVDRip-AVC] [DVO]+[Sub] торрент без регистрации

 
Статистика раздачи
Размер:  1,15 GB   |    Скачан:  112 раз
Сидов:  1  [  0 KB/s  ]  
 
Автор Сообщение

Marsianka

[] 

Информация о фильме
Название: Кукольный дом
Оригинальное название: A Doll's House
Год выхода: 1973
Жанр: драма
Режиссер: Патрик Гарлэнд / Patrick Garland
В ролях: Клер Блум, Энтони Хопкинс, Ральф Ричардсон, Денхолм Эллиот, Анна Мэсси, Эдит Эванс, Хелен Блэтч, Кимберли Хэмптон, Дафна Риггз, Пэм Роуз

О фильме:
Экранизация пьесы Генрика Ибсена. Ради блага своих близких миссис Хэммерт совершила, мягко говоря, нехороший поступок. И родственники ее же осудили. Развернувшиеся события показывают молодой женщине, как призрачно ее счастье и благополучие…



Страна: Великобритания
Студия: Elkins Productions International Corporation, Freeward Films, Life Investors International
Продолжительность: 01:35:10.288
Перевод: Профессиональный (двухголосый закадровый) НТВ+

Файл
Кодек: h.264
Качество: DVDRip-AVC
Видео: 704x464 (16:9) @ 836x464 (анаморф), 23.976 fps, AVC, ~1334 Kbps, 0.170 bits/pixel
Русский, 48.0 KHz, AC3, 1 ch, 192 Kbps
Английский, 48.0 KHz, AC3, 2 ch, 192 Kbps (двойное моно)
Субтитры: Английские, VobSub
Общее
Уникальный идентификатор : 211548650078584090543044393777581672004 (0x9F26C9B996A14B4FA491F78C985A4644)
Полное имя : H:FilmsKukolniy_Dom.1973.DVDRip-AVC.mkv
Формат : Matroska
Версия формата : Version 4 / Version 2
Размер файла : 1,15 Гбайт
Продолжительность : 1 ч. 35 м.
Общий поток : 1723 Кбит/сек
Дата кодирования : UTC 2014-10-18 10:08:17
Программа кодирования : mkvmerge v7.2.0 ('On Every Street') 64bit built on Sep 13 2014 15:52:10
Библиотека кодирования : libebml v1.3.0 + libmatroska v1.4.1
DURATION : 01:32:39.419000000
NUMBER_OF_FRAMES : 1427
NUMBER_OF_BYTES : 1833369
_STATISTICS_WRITING_APP : mkvmerge v7.2.0 ('On Every Street') 64bit built on Sep 13 2014 15:52:10
_STATISTICS_WRITING_DATE_UTC : 2014-10-18 10:08:17
_STATISTICS_TAGS : BPS DURATION NUMBER_OF_FRAMES NUMBER_OF_BYTES

Видео
Идентификатор : 1
Формат : AVC
Формат/Информация : Advanced Video Codec
Профиль формата : High@L4.1
Параметр CABAC формата : Да
Параметр ReFrames формата : 16 кадров
Идентификатор кодека : V_MPEG4/ISO/AVC
Продолжительность : 1 ч. 35 м.
Битрейт : 1334 Кбит/сек
Ширина : 704 пикселя
Высота : 464 пикселя
Соотношение сторон : 16:9
Соотношение сторон в оригинале : 16:9
Режим частоты кадров : Постоянный
Частота кадров : 23,976 кадра/сек
Цветовое пространство : YUV
Субдискретизация насыщенности : 4:2:0
Битовая глубина : 8 бит
Тип развёртки : Прогрессивная
Бит/(Пиксели*Кадры) : 0.170
Размер потока : 888 Мбайт (76%)
Библиотека кодирования : x264 core 142 r2431 ac76440
Настройки программы : cabac=1 / ref=16 / deblock=1:0:0 / analyse=0x3:0x133 / me=umh / subme=10 / psy=1 / psy_rd=1.10:0.10 / mixed_ref=1 / me_range=32 / chroma_me=1 / trellis=2 / 8x8dct=1 / cqm=0 / deadzone=21,11 / fast_pskip=0 / chroma_qp_offset=-3 / threads=8 / lookahead_threads=2 / sliced_threads=0 / nr=0 / decimate=0 / interlaced=0 / bluray_compat=0 / constrained_intra=0 / bframes=10 / b_pyramid=2 / b_adapt=2 / b_bias=0 / direct=3 / weightb=1 / open_gop=0 / weightp=2 / keyint=240 / keyint_min=23 / scenecut=60 / intra_refresh=0 / rc_lookahead=60 / rc=2pass / mbtree=0 / bitrate=1334 / ratetol=1.0 / qcomp=0.60 / qpmin=0 / qpmax=69 / qpstep=4 / cplxblur=20.0 / qblur=0.5 / vbv_maxrate=50000 / vbv_bufsize=62500 / nal_hrd=none / filler=0 / ip_ratio=1.40 / pb_ratio=1.30 / aq=1:1.00
Default : Нет
Forced : Нет
Коэффициенты матрицы : BT.601
DURATION : 01:35:10.288000000
NUMBER_OF_FRAMES : 136910
NUMBER_OF_BYTES : 952134534
_STATISTICS_WRITING_APP : mkvmerge v7.2.0 ('On Every Street') 64bit built on Sep 13 2014 15:52:10
_STATISTICS_WRITING_DATE_UTC : 2014-10-18 10:08:17
_STATISTICS_TAGS : BPS DURATION NUMBER_OF_FRAMES NUMBER_OF_BYTES

Аудио #1
Идентификатор : 2
Формат : AC-3
Формат/Информация : Audio Coding 3
Расширение режима : CM (complete main)
Параметр Endianness формата : Big
Идентификатор кодека : A_AC3
Продолжительность : 1 ч. 35 м.
Вид битрейта : Постоянный
Битрейт : 192 Кбит/сек
Каналы : 1 канал
Расположение каналов : Front: C
Частота : 48,0 КГц
Битовая глубина : 16 бит
Метод сжатия : С потерями
Размер потока : 131 Мбайт (11%)
Язык : Russian
Default : Да
Forced : Нет

Аудио #2
Идентификатор : 3
Формат : AC-3
Формат/Информация : Audio Coding 3
Расширение режима : CM (complete main)
Параметр Endianness формата : Big
Идентификатор кодека : A_AC3
Продолжительность : 1 ч. 35 м.
Вид битрейта : Постоянный
Битрейт : 192 Кбит/сек
Каналы : 2 канала
Расположение каналов : Front: L R
Частота : 48,0 КГц
Битовая глубина : 16 бит
Метод сжатия : С потерями
Размер потока : 131 Мбайт (11%)
Язык : English
Default : Нет
Forced : Нет

Текст
Идентификатор : 4
Формат : VobSub
Режим смешивания : zlib
Идентификатор кодека : S_VOBSUB
Идентификатор кодека/Информация : The same subtitle format used on DVDs
Язык : English
Default : Нет
Forced : Нет

Меню
00:00:00.000 : en:Chapter 01
00:06:48.934 : en:Chapter 02
00:11:26.434 : en:Chapter 03
00:16:24.434 : en:Chapter 04
00:25:44.434 : en:Chapter 05
00:29:06.434 : en:Chapter 06
00:31:26.934 : en:Chapter 07
00:37:28.434 : en:Chapter 08
00:46:01.434 : en:Chapter 09
00:49:37.968 : en:Chapter 10
00:55:30.468 : en:Chapter 11
01:01:18.468 : en:Chapter 12
01:09:18.968 : en:Chapter 13
01:16:23.468 : en:Chapter 14
01:30:12.468 : en:Chapter 15
01:31:57.968 : en:Chapter 16
Релиз от: Temperest



Скачать Кукольный.дом.A.Doll's.House.(Патрик.Гарлэнд).[1973.драма.DVDRip-AVC].[DVO]+[Sub].torrent без регистрации
Золото ЗОЛОТАЯ РАЗДАЧА! СКАЧАННОЕ НЕ ЗАСЧИТЫВАЕТСЯ! Золото
Дата: Зарегистрирован   [ Тип: внутренний ] Как тут cкачать?
MAGNET ссылка
MAGNET ссылка


Скачать .torrent

12 KB

Статус: проверено DHT
Скачан: торрент - 112 раз, раздача полностью - 6 раз
Размер: 1,15 GB
Оценка:  - (Голосов: 0)
Поблагодарили: 1
Поделиться ссылкой на эту раздачу с друзьями:
В контактеFacebookОдноклассникиTwitterLivejournalМой МирLiveinternet
 

 
Показать сообщения:    


Вы не можете начинать темы
Вы не можете отвечать на сообщения
Вы не можете редактировать свои сообщения
Вы не можете удалять свои сообщения
Вы не можете голосовать в опросах
Вы не можете прикреплять файлы к сообщениям
Вы можете скачивать файлы