Loading...
Error

Скачать Затерянный мир / Land of the Lost (Брэд Силберлинг) [2009, фантастика, комедия, приключения, BDRip-AVC] [Dub]+[MVO]+[Sub]x3 торрент без регистрации

 
Статистика раздачи
Размер:  3,26 GB   |    Скачан:  184 раза

Полного источника не было: 26 минут

 
Автор Сообщение

Marsianka

[] 

Информация о фильме
Название: Затерянный мир
Оригинальное название: Land of the Lost
Год выхода: 2009
Жанр: фантастика, комедия, приключения
Режиссер: Брэд Силберлинг
В ролях: Уилл Феррелл, Анна Фрил, Дэнни МакБрайд, Йорма Такконе, Джон Бойлан, Мэтт Лауэр, Бобби Дж. Томпсон, Сьерра МакКормик, Шеннон Лемке, Стиви Уолш мл., Брайан Хаски, Кевин Бьюитраго, Ной Кроуфорд, Джон Кент Этридж, Логан Манус, Бен Бест, Скотт Дорел, Шон Майкл Гесс, Деннис МакНиколас, Крис Хенчи, Курт Карли, Т.С. Кларк, Дэниэл Джордж, Тодд Хантер, Марти Матулис, Тим Сёргел, Дуглас Тейт, Патрик Ведж, Анна Александер, Моран Атиас, Джесси Голден., Ив Мауро, Поллианна МакИнтош, Аня Спиринг, Пол Адельштейн

О фильме:
Невероятно-захватывающие приключения неудачника-палеонтолога, его ассистентки и красавчика-гида, которые случайно находят странный мир, заселенный динозаврами и прочими австралопитеками.



Страна: США
Студия: Mosaic Media Group, Relativity Media
Продолжительность: 01:41:40
Перевод: Дублированный (Пифагор)

Файл
Кодек: x264
Качество: BDRip-AVC
Видео: MPEG-4 AVC, 3500 Кбит/с, 1024x554, 23.976 кадр/с

Семпл
Стилистика текста финальных титров взята у фильмов «Планета обезьян» (1968, 2001гг), а визуальное оформление с «Планеты обезьян» 1968г.
Золотая малина, 2010 год
Победитель (1):
Худший сиквел, ремейк или плагиат
Номинации (6):
Худший фильм
Худшая мужская роль (Уилл Феррелл)
Худшая мужская роль второго плана (Йорма Такконе)
Худший режиссер (Брэд Силберлинг)
Худший сценарий
Худшая экранная пара — «Уилл Феррелл и любой другой актер или монстр»
Рейтинг PG-13 - Детям до 13 лет просмотр не желателен
За украинскую дорогу СПАСИБО - Hurtom
Общее
Уникальный идентификатор : 174639958459469889075386087423905264616 (0x83626EBB7D539C368DDBAD38FB0A73E8)
Полное имя : J:Готовые новые релизыLand.Of.The.Lost.2009.x264.BDRip-AVC-MediaClub.mkv
Формат : Matroska
Версия формата : Version 2
Размер файла : 3,26 Гбайт
Продолжительность : 1 ч. 41 м.
Общий поток : 4590 Кбит/сек
Название фильма : Land Of The Lost (2009) BDRip-AVC =MediaClub= [Викс]
Дата кодирования : UTC 2014-10-18 20:02:20
Программа кодирования : mkvmerge v5.8.0 ('No Sleep / Pillow') built on Sep 2 2012 15:37:04
Библиотека кодирования : libebml v1.2.3 + libmatroska v1.3.0

Видео
Идентификатор : 1
Формат : AVC
Формат/Информация : Advanced Video Codec
Профиль формата : High@L4.1
Параметр CABAC формата : Да
Параметр ReFrames формата : 9 кадров
Идентификатор кодека : V_MPEG4/ISO/AVC
Продолжительность : 1 ч. 41 м.
Битрейт : 3500 Кбит/сек
Ширина : 1024 пикселя
Высота : 554 пикселя
Соотношение сторон : 1,85:1
Режим частоты кадров : Постоянный
Частота кадров : 23,976 кадра/сек
Цветовое пространство : YUV
Субдискретизация насыщенности : 4:2:0
Битовая глубина : 8 бит
Тип развёртки : Прогрессивная
Бит/(Пиксели*Кадры) : 0.257
Размер потока : 2,42 Гбайт (74%)
Библиотека кодирования : x264 core 125 r2208 d9d2288
Настройки программы : cabac=1 / ref=9 / deblock=1:-3:-3 / analyse=0x3:0x133 / me=umh / subme=11 / psy=1 / psy_rd=1.00:0.20 / mixed_ref=1 / me_range=48 / chroma_me=1 / trellis=2 / 8x8dct=1 / cqm=0 / deadzone=21,11 / fast_pskip=0 / chroma_qp_offset=-3 / threads=12 / lookahead_threads=2 / sliced_threads=0 / nr=0 / decimate=0 / interlaced=0 / bluray_compat=0 / constrained_intra=0 / bframes=8 / b_pyramid=2 / b_adapt=2 / b_bias=0 / direct=3 / weightb=1 / open_gop=0 / weightp=2 / keyint=250 / keyint_min=23 / scenecut=40 / intra_refresh=0 / rc_lookahead=40 / rc=2pass / mbtree=1 / bitrate=3500 / ratetol=1.0 / qcomp=0.60 / qpmin=0 / qpmax=69 / qpstep=4 / cplxblur=20.0 / qblur=0.5 / ip_ratio=1.40 / aq=1:1.00
Язык : English
Default : Да
Forced : Нет

Аудио #1
Идентификатор : 2
Формат : AC-3
Формат/Информация : Audio Coding 3
Расширение режима : CM (complete main)
Параметр Endianness формата : Big
Идентификатор кодека : A_AC3
Продолжительность : 1 ч. 41 м.
Вид битрейта : Постоянный
Битрейт : 448 Кбит/сек
Каналы : 6 каналов
Расположение каналов : Front: L C R, Side: L R, LFE
Частота : 48,0 КГц
Битовая глубина : 16 бит
Метод сжатия : С потерями
Размер потока : 326 Мбайт (10%)
Язык : Russian
Default : Да
Forced : Нет

Аудио #2
Идентификатор : 3
Формат : AC-3
Формат/Информация : Audio Coding 3
Расширение режима : CM (complete main)
Параметр Endianness формата : Big
Идентификатор кодека : A_AC3
Продолжительность : 1 ч. 41 м.
Вид битрейта : Постоянный
Битрейт : 192 Кбит/сек
Каналы : 2 канала
Расположение каналов : Front: L R
Частота : 48,0 КГц
Битовая глубина : 16 бит
Метод сжатия : С потерями
Размер потока : 140 Мбайт (4%)
Язык : Ukrainian
Default : Нет
Forced : Нет

Аудио #3
Идентификатор : 4
Формат : AC-3
Формат/Информация : Audio Coding 3
Расширение режима : CM (complete main)
Параметр Endianness формата : Big
Идентификатор кодека : A_AC3
Продолжительность : 1 ч. 41 м.
Вид битрейта : Постоянный
Битрейт : 448 Кбит/сек
Каналы : 6 каналов
Расположение каналов : Front: L C R, Side: L R, LFE
Частота : 48,0 КГц
Битовая глубина : 16 бит
Метод сжатия : С потерями
Размер потока : 326 Мбайт (10%)
Язык : English
Default : Нет
Forced : Нет

Текст #1
Идентификатор : 5
Формат : UTF-8
Идентификатор кодека : S_TEXT/UTF8
Идентификатор кодека/Информация : UTF-8 Plain Text
Язык : Russian
Default : Да
Forced : Нет

Текст #2
Идентификатор : 6
Формат : UTF-8
Идентификатор кодека : S_TEXT/UTF8
Идентификатор кодека/Информация : UTF-8 Plain Text
Язык : Ukrainian
Default : Нет
Forced : Нет

Текст #3
Идентификатор : 7
Формат : UTF-8
Идентификатор кодека : S_TEXT/UTF8
Идентификатор кодека/Информация : UTF-8 Plain Text
Язык : English
Default : Нет
Forced : Нет
Аудио #1: Русский (AC3, 6 ch, 448 Кбит/с) / Дублированный (Пифагор)
Аудио #2: Украинский (AC3, 2 ch, 192 Кбит/с) / Профессиональный многоголосый (ТРК Украина)
Аудио #3: Английский (AC3, 6 ch, 448 Кбит/с)
Субтитры: Русские, украинские, английские
Релиз от: Рип - Викс



Скачать Затерянный.мир.Land.of.the.Lost.(Брэд.Силберлинг).[2009.фантастика.комедия.приключения.BDRip-AVC].[Dub]+[MVO]+[Sub]x3.torrent без регистрации
Золото ЗОЛОТАЯ РАЗДАЧА! СКАЧАННОЕ НЕ ЗАСЧИТЫВАЕТСЯ! Золото
Дата: Зарегистрирован   [ Тип: внутренний ] Как тут cкачать?
MAGNET ссылка
MAGNET ссылка


Скачать .torrent

18 KB

Статус: проверено DHT
Скачан: торрент - 184 раз, раздача полностью - 204 раз
Размер: 3,26 GB
Оценка:  - (Голосов: 0)
Поблагодарили: 1
Поделиться ссылкой на эту раздачу с друзьями:
В контактеFacebookОдноклассникиTwitterLivejournalМой МирLiveinternet
 

 
Показать сообщения:    


Вы не можете начинать темы
Вы не можете отвечать на сообщения
Вы не можете редактировать свои сообщения
Вы не можете удалять свои сообщения
Вы не можете голосовать в опросах
Вы не можете прикреплять файлы к сообщениям
Вы можете скачивать файлы