Loading...
Error

Скачать Лепрекон / Leprechaun (Марк Джонс) [1993, ужасы, фэнтези, комедия, BDRip-AVC] [MVO] торрент без регистрации

 
Статистика раздачи
Размер:  4,55 GB   |    Скачан:  131 раз
Сидов:  1  [  0 KB/s  ]  
 
Автор Сообщение

Marsianka

[] 

Год выпуска: 1993
Жанр: ужасы, фэнтези, комедия
Режиссер: Марк Джонс
В ролях: Уорвик Дэвис, Дженнифер Энистон, Кен Оландт, Марк Холтон, Роберт Хай Гормен, Шэй Даффин, Джон Сандерфорд, Джон Волдстад, Памела Мэнт, Уильям Ньюман

Описание:
Мистер О`Грейди неожиданно приезжает из Ирландии богатым человеком. Жена О«Грейди думает, что он просто пьян и не в своём уме, когда О»Грейди заявляет, что он украл золото у Лепрекона и сейчас они заживут по-новому. Правда, он не учёл маленькой детали: сам Лепрекон каким-то образом приехал вместе с ним в одном из чемоданов и одержим местью к тому, кто позарился на его богатства…



Выпущено: США
Перевод: профессиональный (многоголосый)
Субтитры: Нет
Продолжительность: 01:31:26

Качество: BDRip-AVC
Контейнер: MKV
Видео: 1024x576, High@L4.1, 23.976 fps, 6 530 Kbps
Аудио: 48 kHz, АС3, 6 ch, 448 kbps [многоголосый, CP Digital]
General
Unique ID : 208112191024176363003168763342072035353 (0x9C90F33661BAE96F9DF29945625BB819)
Complete name : E:КиноЛепрекон 1-6Leprekon.(1993).[576p].BDRip-AVC.[-=DoMiNo=-].mkv
Format : Matroska
Format version : Version 2
File size : 4.55 GiB
Duration : 1h 31mn
Overall bit rate : 7 119 Kbps
Encoded date : UTC 2014-10-17 08:57:12
Writing application : mkvmerge v6.1.0 ('Old Devil') built on Mar 4 2013 09:10:42
Writing library : libebml v1.3.0 + libmatroska v1.4.0

Video
ID : 1
Format : AVC
Format/Info : Advanced Video Codec
Format profile : High@L4.1
Format settings, CABAC : Yes
Format settings, ReFrames : 10 frames
Codec ID : V_MPEG4/ISO/AVC
Duration : 1h 31mn
Bit rate : 6 530 Kbps
Width : 1 024 pixels
Height : 576 pixels
Display aspect ratio : 16:9
Frame rate mode : Constant
Frame rate : 23.976 fps
Color space : YUV
Chroma subsampling : 4:2:0
Bit depth : 8 bits
Scan type : Progressive
Bits/(Pixel*Frame) : 0.462
Stream size : 4.17 GiB (92%)
Writing library : x264 core 130 r2273 b3065e6
Encoding settings : cabac=1 / ref=10 / deblock=1:-3:-3 / analyse=0x3:0x133 / me=umh / subme=11 / psy=1 / psy_rd=1.00:0.50 / mixed_ref=1 / me_range=32 / chroma_me=1 / trellis=2 / 8x8dct=1 / cqm=0 / deadzone=21,11 / fast_pskip=0 / chroma_qp_offset=-3 / threads=16 / lookahead_threads=4 / sliced_threads=0 / slices=4 / nr=0 / decimate=0 / interlaced=0 / bluray_compat=0 / constrained_intra=0 / bframes=12 / b_pyramid=2 / b_adapt=2 / b_bias=0 / direct=1 / weightb=1 / open_gop=0 / weightp=2 / keyint=250 / keyint_min=23 / scenecut=40 / intra_refresh=0 / rc=crf / mbtree=0 / crf=20.0 / qcomp=0.70 / qpmin=0 / qpmax=69 / qpstep=4 / ip_ratio=1.40 / pb_ratio=1.30 / aq=2:2.00
Default : Yes
Forced : No

Audio
ID : 2
Format : AC-3
Format/Info : Audio Coding 3
Mode extension : CM (complete main)
Format settings, Endianness : Big
Codec ID : A_AC3
Duration : 1h 31mn
Bit rate mode : Constant
Bit rate : 448 Kbps
Channel(s) : 6 channels
Channel positions : Front: L C R, Side: L R, LFE
Sampling rate : 48.0 KHz
Bit depth : 16 bits
Compression mode : Lossy
Stream size : 293 MiB (6%)
Default : Yes
Forced : No







Скачать Лепрекон.Leprechaun.(Марк.Джонс).[1993.ужасы.фэнтези.комедия.BDRip-AVC].[MVO].torrent без регистрации
Золото ЗОЛОТАЯ РАЗДАЧА! СКАЧАННОЕ НЕ ЗАСЧИТЫВАЕТСЯ! Золото
Дата: Зарегистрирован   [ Тип: внутренний ] Как тут cкачать?
MAGNET ссылка
MAGNET ссылка


Скачать .torrent

12 KB

Статус: проверено DHT
Скачан: торрент - 131 раз, раздача полностью - 4 раз
Размер: 4,55 GB
Оценка:  - (Голосов: 0)
Поблагодарили: 2
Поделиться ссылкой на эту раздачу с друзьями:
В контактеFacebookОдноклассникиTwitterLivejournalМой МирLiveinternet
 

 
Показать сообщения:    


Вы не можете начинать темы
Вы не можете отвечать на сообщения
Вы не можете редактировать свои сообщения
Вы не можете удалять свои сообщения
Вы не можете голосовать в опросах
Вы не можете прикреплять файлы к сообщениям
Вы можете скачивать файлы