Loading...
Error

Скачать Лепрекон 3: Приключения в Лас-Вегасе / Leprechaun 3 (Брайан Тренчард-Смит) [1995, ужасы, фэнтези, комедия, BDRip-AVC] [MVO] торрент без регистрации

 
Статистика раздачи
Размер:  2,23 GB   |    Скачан:  134 раза
Сидов:  1  [  0 KB/s  ]  
 
Автор Сообщение

Marsianka

[] 

Год выпуска: 1995
Жанр: ужасы, фэнтези, комедия
Режиссер: Брайан Тренчард-Смит
В ролях: Уорвик Дэвис, Джон Гэйтинс, Ли Армстронг, Джон ДеМита, Майкл Каллэн, Кэролин Уильямс, Марсело Тьюберт, Том Дуган, Ли Эллин Бэйкер

Описание: Город, который поклоняется золоту, может поставить памятник злому гному Лепрекону, вечному хранителю желтого металла. В лас-вегасском ломбарде карлик опять оживает, сеет на своем пути смерть и ужас, а однажды, в поисках оброненного золотого шиллинга, попадает в казино, где чувствует себя, как дома. Шиллинг между тем начинает переходить из рук в руки, и каждому новому его владельцу достаточно произнести слово «хочу»…



Выпущено: США
Перевод: профессиональный (многоголосый)
Субтитры: Нет
Продолжительность: 01:33:16

Качество: BDRip-AVC
Контейнер: MKV
Видео: 1024x576, High@L4.1, 23.976 fps, 3099 kbps
Аудио: 48 kHz, АС3, 2 ch, 256 kbps
General
Unique ID : 194420615260287118462754871055649811409 (0x92440C68C404D1999D03193156732BD1)
Complete name : E:КиноЛепрекон 1-6Leprekon-3.(1995).[576p].BDRip-AVC.[-=DoMiNo=-].mkv
Format : Matroska
Format version : Version 2
File size : 2.23 GiB
Duration : 1h 33mn
Overall bit rate : 3 423 Kbps
Encoded date : UTC 2014-10-17 23:23:40
Writing application : mkvmerge v6.1.0 ('Old Devil') built on Mar 4 2013 09:10:42
Writing library : libebml v1.3.0 + libmatroska v1.4.0

Video
ID : 1
Format : AVC
Format/Info : Advanced Video Codec
Format profile : High@L4.1
Format settings, CABAC : Yes
Format settings, ReFrames : 10 frames
Codec ID : V_MPEG4/ISO/AVC
Duration : 1h 33mn
Bit rate : 3 099 Kbps
Width : 1 024 pixels
Height : 576 pixels
Display aspect ratio : 16:9
Frame rate mode : Constant
Frame rate : 23.976 fps
Color space : YUV
Chroma subsampling : 4:2:0
Bit depth : 8 bits
Scan type : Progressive
Bits/(Pixel*Frame) : 0.219
Stream size : 2.02 GiB (91%)
Writing library : x264 core 130 r2273 b3065e6
Encoding settings : cabac=1 / ref=10 / deblock=1:-3:-3 / analyse=0x3:0x133 / me=umh / subme=11 / psy=1 / psy_rd=1.00:0.20 / mixed_ref=1 / me_range=32 / chroma_me=1 / trellis=2 / 8x8dct=1 / cqm=0 / deadzone=21,11 / fast_pskip=0 / chroma_qp_offset=-2 / threads=16 / lookahead_threads=4 / sliced_threads=0 / slices=4 / nr=0 / decimate=1 / interlaced=0 / bluray_compat=0 / constrained_intra=0 / bframes=12 / b_pyramid=2 / b_adapt=2 / b_bias=0 / direct=3 / weightb=1 / open_gop=0 / weightp=2 / keyint=250 / keyint_min=23 / scenecut=40 / intra_refresh=0 / rc=crf / mbtree=0 / crf=20.0 / qcomp=0.60 / qpmin=0 / qpmax=69 / qpstep=4 / ip_ratio=1.10 / pb_ratio=1.10 / aq=1:1.00
Default : Yes
Forced : No

Audio
ID : 2
Format : AC-3
Format/Info : Audio Coding 3
Mode extension : CM (complete main)
Format settings, Endianness : Big
Codec ID : A_AC3
Duration : 1h 33mn
Bit rate mode : Constant
Bit rate : 256 Kbps
Channel(s) : 2 channels
Channel positions : Front: L R
Sampling rate : 48.0 KHz
Bit depth : 16 bits
Compression mode : Lossy
Stream size : 171 MiB (7%)
Language : Russian
Default : Yes
Forced : No







Скачать Лепрекон.3.Приключения.в.Лас-Вегасе.Leprechaun.3.(Брайан.Тренчард-Смит).[1995.ужасы.фэнтези.комедия.BDRip-AVC].[MVO].torrent без регистрации
Золото ЗОЛОТАЯ РАЗДАЧА! СКАЧАННОЕ НЕ ЗАСЧИТЫВАЕТСЯ! Золото
Дата: Зарегистрирован   [ Тип: внутренний ] Как тут cкачать?
MAGNET ссылка
MAGNET ссылка


Скачать .torrent

12 KB

Статус: проверено DHT
Скачан: торрент - 134 раз, раздача полностью - 2 раз
Размер: 2,23 GB
Оценка:  - (Голосов: 0)
Поблагодарили: 1
Поделиться ссылкой на эту раздачу с друзьями:
В контактеFacebookОдноклассникиTwitterLivejournalМой МирLiveinternet
 

 
Показать сообщения:    


Вы не можете начинать темы
Вы не можете отвечать на сообщения
Вы не можете редактировать свои сообщения
Вы не можете удалять свои сообщения
Вы не можете голосовать в опросах
Вы не можете прикреплять файлы к сообщениям
Вы можете скачивать файлы