Loading...
Error

Скачать Лепрекон 4: В космосе / Leprechaun 4: In Space (Брайан Тренчард-Смит) [1997, ужасы, фантастика, комедия, BDRip-AVC] [MVO] торрент без регистрации

 
Статистика раздачи
Размер:  2,57 GB   |    Скачан:  133 раза
Сидов:  1  [  0 KB/s  ]  
 
Автор Сообщение

Marsianka

[] 

Год выпуска: 1996
Жанр: ужасы, фантастика, комедия
Режиссер: Брайан Тренчард-Смит
В ролях: Уорвик Дэвис, Брент Джэсмер, Джессика Коллинз, Гай Сайнер, Гари Гроссман, Ребекка Кросс, Тим Колсери, Мигель А. Нуньес мл. Дебби Даннинг, Майк Каннидзо, Рик Питерс, Джеймс Куинн, Лэдд Йорк, Джофф Мид

Описание:
В межпланетных глубинах 21-го века злой гном Лепрекон задумал жениться на прекрасной принцессе Зарине. Ей на помощь приходит отряд космических рейнджеров, но и кровожадный карлик проникает на звездолет. Здесь, где возможны самые невероятные фантастические перевоплощения, начинается очередной раунд битвы с Лепреконом…



Выпущено: США
Продолжительность: 01:35:16
Перевод: профессиональный [многоголосый, РЕН-ТВ]
Субтитры: Нет

Качество: BDRip-AVC
Контейнер: MKV
Видео: 1024x576, High@L4.1, 23.976 fps, ~3588 kbps
Аудио: 48 kHz, АС3, 2 ch, 192 kbps
General
Unique ID : 238058863772277694953994946150213728484 (0xB318782C572E6EA89FE4FA10CC25B8E4)
Complete name : E:КиноЛепрекон 1-6Leprekon-4.(1996).[576p].BDRip-AVC.[-=DoMiNo=-].mkv
Format : Matroska
Format version : Version 2
File size : 2.57 GiB
Duration : 1h 35mn
Overall bit rate : 3 857 Kbps
Encoded date : UTC 2014-10-18 08:00:50
Writing application : mkvmerge v6.1.0 ('Old Devil') built on Mar 4 2013 09:10:42
Writing library : libebml v1.3.0 + libmatroska v1.4.0

Video
ID : 1
Format : AVC
Format/Info : Advanced Video Codec
Format profile : High@L4.1
Format settings, CABAC : Yes
Format settings, ReFrames : 10 frames
Codec ID : V_MPEG4/ISO/AVC
Duration : 1h 35mn
Bit rate : 3 588 Kbps
Width : 1 024 pixels
Height : 576 pixels
Display aspect ratio : 16:9
Frame rate mode : Constant
Frame rate : 23.976 fps
Color space : YUV
Chroma subsampling : 4:2:0
Bit depth : 8 bits
Scan type : Progressive
Bits/(Pixel*Frame) : 0.254
Stream size : 2.39 GiB (93%)
Writing library : x264 core 130 r2273 b3065e6
Encoding settings : cabac=1 / ref=10 / deblock=1:-3:-3 / analyse=0x3:0x133 / me=umh / subme=11 / psy=1 / psy_rd=1.00:0.20 / mixed_ref=1 / me_range=32 / chroma_me=1 / trellis=2 / 8x8dct=1 / cqm=0 / deadzone=21,11 / fast_pskip=0 / chroma_qp_offset=-2 / threads=16 / lookahead_threads=4 / sliced_threads=0 / slices=4 / nr=0 / decimate=1 / interlaced=0 / bluray_compat=0 / constrained_intra=0 / bframes=12 / b_pyramid=2 / b_adapt=2 / b_bias=0 / direct=3 / weightb=1 / open_gop=0 / weightp=2 / keyint=250 / keyint_min=23 / scenecut=40 / intra_refresh=0 / rc=crf / mbtree=0 / crf=20.0 / qcomp=0.60 / qpmin=0 / qpmax=69 / qpstep=4 / ip_ratio=1.10 / pb_ratio=1.10 / aq=1:1.00
Default : Yes
Forced : No

Audio
ID : 2
Format : AC-3
Format/Info : Audio Coding 3
Mode extension : CM (complete main)
Format settings, Endianness : Big
Codec ID : A_AC3
Duration : 1h 35mn
Bit rate mode : Constant
Bit rate : 192 Kbps
Channel(s) : 2 channels
Channel positions : Front: L R
Sampling rate : 48.0 KHz
Bit depth : 16 bits
Compression mode : Lossy
Stream size : 131 MiB (5%)
Language : Russian
Default : Yes
Forced : No







Скачать Лепрекон.4.В.космосе.Leprechaun.4.In.Space.(Брайан.Тренчард-Смит).[1997.ужасы.фантастика.комедия.BDRip-AVC].[MVO].torrent без регистрации
Золото ЗОЛОТАЯ РАЗДАЧА! СКАЧАННОЕ НЕ ЗАСЧИТЫВАЕТСЯ! Золото
Дата: Зарегистрирован   [ Тип: внутренний ] Как тут cкачать?
MAGNET ссылка
MAGNET ссылка


Скачать .torrent

13 KB

Статус: проверено DHT
Скачан: торрент - 133 раз, раздача полностью - 5 раз
Размер: 2,57 GB
Оценка:  - (Голосов: 0)
Поблагодарили: 1
Поделиться ссылкой на эту раздачу с друзьями:
В контактеFacebookОдноклассникиTwitterLivejournalМой МирLiveinternet
 

 
Показать сообщения:    


Вы не можете начинать темы
Вы не можете отвечать на сообщения
Вы не можете редактировать свои сообщения
Вы не можете удалять свои сообщения
Вы не можете голосовать в опросах
Вы не можете прикреплять файлы к сообщениям
Вы можете скачивать файлы