Loading...
Error

Скачать Девушка, которая взрывала воздушные замки / The girl who kicked the hornet`s nest (Дэниэл Альфредсон) [2009, триллер, криминал, детектив, BDRip-AVC] [MVO] торрент без регистрации

 
Статистика раздачи
Размер:  3,08 GB   |    Скачан:  161 раз
Сидов:  1  [  0 KB/s  ]  
 
Автор Сообщение

Marsianka

[] 

Информация о фильме
Русское название: Девушка, которая взрывала воздушные замки
Оригинальное название: Luftslottet som sprängdes / The girl who kicked the hornet`s nest
Год выхода: 2009
Жанр: триллер, криминал, детектив

Режиссер: Дэниэл Альфредсон / Daniel Alfredson

В ролях: Микаэл Нюквист, Нуми Рапас, Лена Эндре, Анника Халлин, Джейкоб Эрикссон, София Ледарп, Андерс Албом, Micke Spreitz, Георги Стайков, Mirja Turestedt

Описание: Лисбет Саландер находится под неусыпным наблюдением в отделении интенсивной терапии шведской городской больницы. Она борется за жизнь и не только в физическом смысле: когда она почувствует себя достаточно хорошо, ей предстоит предстать перед судом по обвинению в трех убийствах и в покушении еще на одно. С помощью своего друга, журналиста Микаэля Блумквиста, она должна будет доказать свою невиновность и опознать продажных политиканов, из-за злоупотреблений которых страдают простые люди. А со своей стороны она готовится отомстить человеку, который пробовал убить ее и правительственным учреждениям, которые почти разрушили ее жизнь. Когда-то, она была жертвой. Теперь Лисбет Саландер готова ответить ударом на удар.



Производство: Швеция, Дания, Германия / Filmpool Stockholm Malardalen, Nordisk Film, Yellow Bird Films AB, Zweites Deutsches Fernsehen...
Продолжительность: 02:20:58
Перевод: Профессиональный (многоголосый, закадровый)
Навигация по главам: Есть

Файл
Качество: BDRip-AVC | Исходник: BDRemux
Формат: MKV
Видео: MPEG-4 AVC/H264, 1024x576 (16:9), 25.000 fps, ~2694 kbps, 0.183 bit/pixel, crf
Аудио: AC3 Dolby Digital, 6 ch., 48 kHz, 384 kbps

Семпл
Общее
Уникальный идентификатор : 241340956303815063024683368416243049496 (0xB59093D41B933ACC89FB0336D6A36418)
Полное имя : Devushka.kotoraja.vzryvala.vozdushnye.zamki.2009.BDRip-AVC.mkv
Формат : Matroska
Версия формата : Version 4 / Version 2
Размер файла : 3,08 Гбайт
Продолжительность : 2 ч. 20 м.
Общий поток : 3133 Кбит/сек
Название фильма : The girl who kicked the hornet`s nest (2009) BDRip-AVC
Дата кодирования : UTC 2014-09-23 15:48:55
Программа кодирования : mkvmerge v7.2.0 ('On Every Street') 64bit built on Sep 13 2014 15:52:10
Библиотека кодирования : libebml v1.3.0 + libmatroska v1.4.1

Видео
Идентификатор : 1
Формат : AVC
Формат/Информация : Advanced Video Codec
Профиль формата : High@L4.1
Параметр CABAC формата : Да
Параметр ReFrames формата : 9 кадров
Идентификатор кодека : V_MPEG4/ISO/AVC
Продолжительность : 2 ч. 20 м.
Битрейт : 2686 Кбит/сек
Ширина : 1024 пикселя
Высота : 576 пикселей
Соотношение сторон : 16:9
Режим частоты кадров : Постоянный
Частота кадров : 25,000 кадров/сек
Цветовое пространство : YUV
Субдискретизация насыщенности : 4:2:0
Битовая глубина : 8 бит
Тип развёртки : Прогрессивная
Бит/(Пиксели*Кадры) : 0.182
Размер потока : 2,65 Гбайт (86%)
Заголовок : H264, 1024x576 (16:9), 25.000 fps, ~2694 kbps, 0.183 Bits/(Pixel*Frame)
Библиотека кодирования : x264 core 142 r2479 dd79a61
Настройки программы : cabac=1 / ref=9 / deblock=1:-2:-1 / analyse=0x3:0x133 / me=umh / subme=10 / psy=1 / psy_rd=1.00:0.15 / mixed_ref=1 / me_range=48 / chroma_me=1 / trellis=2 / 8x8dct=1 / cqm=0 / deadzone=21,11 / fast_pskip=1 / chroma_qp_offset=-3 / threads=12 / lookahead_threads=3 / sliced_threads=0 / nr=0 / decimate=1 / interlaced=0 / bluray_compat=0 / constrained_intra=0 / bframes=11 / b_pyramid=2 / b_adapt=2 / b_bias=0 / direct=3 / weightb=1 / open_gop=0 / weightp=2 / keyint=250 / keyint_min=25 / scenecut=40 / intra_refresh=0 / rc_lookahead=60 / rc=crf / mbtree=1 / crf=20.0 / qcomp=0.60 / qpmin=0 / qpmax=69 / qpstep=4 / vbv_maxrate=62500 / vbv_bufsize=78125 / crf_max=0.0 / nal_hrd=none / filler=0 / ip_ratio=1.40 / aq=1:1.00 / zones=205625,211449,q=35
Default : Да
Forced : Нет

Аудио
Идентификатор : 2
Формат : AC-3
Формат/Информация : Audio Coding 3
Расширение режима : CM (complete main)
Параметр Endianness формата : Big
Идентификатор кодека : A_AC3
Продолжительность : 2 ч. 20 м.
Вид битрейта : Постоянный
Битрейт : 384 Кбит/сек
Каналы : 6 каналов
Расположение каналов : Front: L C R, Side: L R, LFE
Частота : 48,0 КГц
Битовая глубина : 16 бит
Метод сжатия : С потерями
Размер потока : 387 Мбайт (12%)
Заголовок : MVO | AC3 Dolby Digital, 6 ch., 48.0 kHz, 384 kbps
Язык : Russian
Default : Да
Forced : Нет

Меню
00:00:00.000 : en:Chapter 1
00:06:18.080 : en:Chapter 2
00:13:13.679 : en:Chapter 3
00:19:34.400 : en:Chapter 4
00:28:36.480 : en:Chapter 5
00:34:07.920 : en:Chapter 6
00:43:49.520 : en:Chapter 7
00:49:11.760 : en:Chapter 8
00:57:47.320 : en:Chapter 9
01:05:04.400 : en:Chapter 10
01:10:47.080 : en:Chapter 11
01:19:21.720 : en:Chapter 12
01:27:25.880 : en:Chapter 13
01:33:36.680 : en:Chapter 14
01:40:16.240 : en:Chapter 15
01:53:43.080 : en:Chapter 16
02:00:57.720 : en:Chapter 17
02:05:22.440 : en:Chapter 18
02:13:36.200 : en:Chapter 19
02:16:20.560 : en:Chapter 20



Скачать Девушка.которая.взрывала.воздушные.замки.The.girl.who.kicked.the.hornet`s.nest.(Дэниэл.Альфредсон).[2009.триллер.криминал.детектив.BDRip-AVC].[MVO].torrent без регистрации
Золото ЗОЛОТАЯ РАЗДАЧА! СКАЧАННОЕ НЕ ЗАСЧИТЫВАЕТСЯ! Золото
Дата: Зарегистрирован   [ Тип: внутренний ] Как тут cкачать?
MAGNET ссылка
MAGNET ссылка


Скачать .torrent

16 KB

Статус: проверено DHT
Скачан: торрент - 161 раз, раздача полностью - 43 раз
Размер: 3,08 GB
Оценка:  - (Голосов: 0)
Поблагодарили: 1
Поделиться ссылкой на эту раздачу с друзьями:
В контактеFacebookОдноклассникиTwitterLivejournalМой МирLiveinternet
 

 
Показать сообщения:    


Вы не можете начинать темы
Вы не можете отвечать на сообщения
Вы не можете редактировать свои сообщения
Вы не можете удалять свои сообщения
Вы не можете голосовать в опросах
Вы не можете прикреплять файлы к сообщениям
Вы можете скачивать файлы