Loading...
Error

Скачать Быть человеком / Being Human (Билл Форсайт) [1994, фэнтези, драма, комедия, DVDRip-AVC] [Dub]+[AVO]+[Оригинал] торрент без регистрации

 
Статистика раздачи
Размер:  2,01 GB   |    Скачан:  106 раз
Сидов:  1  [  0 KB/s  ]  
 
Автор Сообщение

Marsianka

[] 

Информация о фильме
Название: Быть человеком
Оригинальное название: Being Human
Год выхода: 1994
Жанр: фэнтези, драма, комедия
Режиссер: Билл Форсайт / Bill Forsyth
В ролях: Робин Вильямс / Robin Williams, Джон Туртурро / John Turturro, Анна Галиена / Anna Galiena, Винсент Филлип Д'Онофрио / Vincent D'Onofrio, Эктор Элисондо / Hector Elizondo, Роберт Карлайл / Robert Carlyle, Билл Найи /Bill Nighy/, Уильям Х.Мэйси / William H. Macy

О фильме:
Пять коротких историй, случившихся в разное время: в каменном веке, в Римской империи, в средневековой Европе, в XVI — ом столетии и в наши дни. И что бы ни происходило с главным героем — перед ним всегда вставал вопрос: что есть, где укрыться, где найти пару сапог…



Страна: Великобритания, Япония
Студия: Warner Bros., Enigma Productions, BSB
Продолжительность: 02:01:54.975
Перевод: Профессиональный (дублированный) Варус-Видео
Авторский (одноголосый закадровый) Володарский

Файл
Кодек: h.264
Качество: DVDRip-AVC
Видео: 704x480 (16:9) @ 854x480 (анаморф), 23.976 fps, AVC, ~1780 Kbps, 0.220 bits/pixel
Русский, 48.0 KHz, AC3, 2 ch, 192 Kbps (двойное моно) ДУБЛЯЖ Варус Видео
Русский, 48.0 KHz, AC3, 2 ch, 192 Kbps (двойное моно) Л. Володарский
Английский, 48.0 KHz, AC3, 2 ch, 192 Kbps (оригинал, стерео)
Субтитры: нет
Памяти Робина Уильямса / In memory of Robin Williams
Общее
Уникальный идентификатор : 210274552205685519027039027615998233047 (0x9E3167D991148B50A48B2E0D86ED49D7)
Полное имя : H:FilmsByt_Chelovekom.1994.DVDRip-AVC.mkv
Формат : Matroska
Версия формата : Version 4 / Version 2
Размер файла : 2,01 Гбайт
Продолжительность : 2 ч. 1 м.
Общий поток : 2358 Кбит/сек
Дата кодирования : UTC 2014-10-20 04:34:03
Программа кодирования : mkvmerge v7.2.0 ('On Every Street') 64bit built on Sep 13 2014 15:52:10
Библиотека кодирования : libebml v1.3.0 + libmatroska v1.4.1
_STATISTICS_WRITING_APP : mkvmerge v7.2.0 ('On Every Street') 64bit built on Sep 13 2014 15:52:10
_STATISTICS_WRITING_DATE_UTC : 2014-10-20 04:34:03
_STATISTICS_TAGS : BPS DURATION NUMBER_OF_FRAMES NUMBER_OF_BYTES
DURATION : 02:01:54.912000000
NUMBER_OF_FRAMES : 228591
NUMBER_OF_BYTES : 175557888

Видео
Идентификатор : 1
Формат : AVC
Формат/Информация : Advanced Video Codec
Профиль формата : High@L4.1
Параметр CABAC формата : Да
Параметр ReFrames формата : 16 кадров
Идентификатор кодека : V_MPEG4/ISO/AVC
Продолжительность : 2 ч. 1 м.
Битрейт : 1780 Кбит/сек
Ширина : 704 пикселя
Высота : 480 пикселей
Соотношение сторон : 16:9
Режим частоты кадров : Постоянный
Частота кадров : 23,976 кадра/сек
Стандарт вещания : NTSC
Цветовое пространство : YUV
Субдискретизация насыщенности : 4:2:0
Битовая глубина : 8 бит
Тип развёртки : Прогрессивная
Бит/(Пиксели*Кадры) : 0.220
Размер потока : 1,48 Гбайт (74%)
Библиотека кодирования : x264 core 142 r2431 ac76440
Настройки программы : cabac=1 / ref=16 / deblock=1:0:0 / analyse=0x3:0x133 / me=umh / subme=10 / psy=1 / psy_rd=1.10:0.10 / mixed_ref=1 / me_range=32 / chroma_me=1 / trellis=2 / 8x8dct=1 / cqm=0 / deadzone=21,11 / fast_pskip=0 / chroma_qp_offset=-3 / threads=8 / lookahead_threads=1 / sliced_threads=0 / nr=0 / decimate=0 / interlaced=0 / bluray_compat=0 / constrained_intra=0 / bframes=7 / b_pyramid=2 / b_adapt=2 / b_bias=0 / direct=3 / weightb=1 / open_gop=0 / weightp=2 / keyint=240 / keyint_min=23 / scenecut=60 / intra_refresh=0 / rc_lookahead=60 / rc=2pass / mbtree=0 / bitrate=1780 / ratetol=1.0 / qcomp=0.60 / qpmin=0 / qpmax=69 / qpstep=4 / cplxblur=20.0 / qblur=0.5 / vbv_maxrate=50000 / vbv_bufsize=62500 / nal_hrd=none / filler=0 / ip_ratio=1.40 / pb_ratio=1.30 / aq=1:1.00
Default : Нет
Forced : Нет
Коэффициенты матрицы : BT.601
DURATION : 02:01:54.975000000
NUMBER_OF_FRAMES : 175384
NUMBER_OF_BYTES : 1627646844
_STATISTICS_WRITING_APP : mkvmerge v7.2.0 ('On Every Street') 64bit built on Sep 13 2014 15:52:10
_STATISTICS_WRITING_DATE_UTC : 2014-10-20 04:34:03
_STATISTICS_TAGS : BPS DURATION NUMBER_OF_FRAMES NUMBER_OF_BYTES

Аудио #1
Идентификатор : 2
Формат : AC-3
Формат/Информация : Audio Coding 3
Расширение режима : CM (complete main)
Параметр Endianness формата : Big
Идентификатор кодека : A_AC3
Продолжительность : 2 ч. 1 м.
Вид битрейта : Постоянный
Битрейт : 192 Кбит/сек
Каналы : 2 канала
Расположение каналов : Front: L R
Частота : 48,0 КГц
Битовая глубина : 16 бит
Метод сжатия : С потерями
Размер потока : 167 Мбайт (8%)
Заголовок : Dub (Varus Video)
Язык : Russian
Default : Да
Forced : Нет

Аудио #2
Идентификатор : 3
Формат : AC-3
Формат/Информация : Audio Coding 3
Расширение режима : CM (complete main)
Параметр Endianness формата : Big
Идентификатор кодека : A_AC3
Продолжительность : 2 ч. 1 м.
Вид битрейта : Постоянный
Битрейт : 192 Кбит/сек
Каналы : 2 канала
Расположение каналов : Front: L R
Частота : 48,0 КГц
Битовая глубина : 16 бит
Метод сжатия : С потерями
Размер потока : 167 Мбайт (8%)
Заголовок : Volodarskiy
Язык : Russian
Default : Нет
Forced : Нет

Аудио #3
Идентификатор : 4
Формат : AC-3
Формат/Информация : Audio Coding 3
Расширение режима : CM (complete main)
Параметр Endianness формата : Big
Идентификатор кодека : A_AC3
Продолжительность : 2 ч. 1 м.
Вид битрейта : Постоянный
Битрейт : 192 Кбит/сек
Каналы : 2 канала
Расположение каналов : Front: L R
Частота : 48,0 КГц
Битовая глубина : 16 бит
Метод сжатия : С потерями
Размер потока : 167 Мбайт (8%)
Язык : English
Default : Нет
Forced : Нет

Меню
00:00:00.000 : en:Chapter 01
00:10:00.500 : en:Chapter 02
00:20:00.000 : en:Chapter 03
00:30:00.000 : en:Chapter 04
00:40:00.500 : en:Chapter 05
00:50:00.000 : en:Chapter 06
01:00:00.434 : en:Chapter 07
01:09:59.934 : en:Chapter 08
01:20:00.434 : en:Chapter 09
01:30:00.434 : en:Chapter 10
01:39:59.934 : en:Chapter 11
01:50:00.434 : en:Chapter 12
01:59:59.934 : en:Chapter 13
frame I:1354 Avg QP:16.62 size: 58557
frame P:41691 Avg QP:18.99 size: 20941
frame B:132339 Avg QP:20.84 size: 5103
Релиз от: Temperest



Скачать Быть.человеком.Being.Human.(Билл.Форсайт).[1994.фэнтези.драма.комедия.DVDRip-AVC].[Dub]+[AVO]+[Оригинал].torrent без регистрации
Золото ЗОЛОТАЯ РАЗДАЧА! СКАЧАННОЕ НЕ ЗАСЧИТЫВАЕТСЯ! Золото
Дата: Зарегистрирован   [ Тип: внутренний ] Как тут cкачать?
MAGNET ссылка
MAGNET ссылка


Скачать .torrent

11 KB

Статус: проверено DHT
Скачан: торрент - 106 раз, раздача полностью - 3 раз
Размер: 2,01 GB
Оценка:  - (Голосов: 0)
Поблагодарили: 2
Поделиться ссылкой на эту раздачу с друзьями:
В контактеFacebookОдноклассникиTwitterLivejournalМой МирLiveinternet
 

 
Показать сообщения:    


Вы не можете начинать темы
Вы не можете отвечать на сообщения
Вы не можете редактировать свои сообщения
Вы не можете удалять свои сообщения
Вы не можете голосовать в опросах
Вы не можете прикреплять файлы к сообщениям
Вы можете скачивать файлы