Loading...
Error

Скачать Парк Горького / Gorky Park (Майкл Эптид) [1983, триллер, драма, криминал, BDRip-AVC] [DVO] торрент без регистрации

 
Статистика раздачи
Размер:  2,18 GB   |    Скачан:  109 раз
Сидов:  1  [  0 KB/s  ]  
 
Автор Сообщение

Marsianka

[] 

Информация о фильме
Год выпуска: 1983
Жанр: триллер, драма, криминал
Режиссер: Майкл Эптид
В ролях: Уильям Хёрт, Ли Марвин, Джоанна Пакула, Иэн Бэннен, Брайан Деннехи, Ричард Гриффитс, Александр Нокс, Рикки Фултон, Майкл Элфик

Описание:
В Москве, в парке имени Горького, находят три трупа с изуродованными до неузнаваемости лицами и удаленными пальцами. Следователь Аркадий Ренко получает задание: установить личность убитых и найти убийцу. Мало-помалу обстоятельства дела проясняются, и улики все явственнее указывают на причастность к убийству КГБ. У бывалого оперативника возникает сильное искушение — закрыть дело. Но вскоре он узнает, что к убийству причастна и его любимая женщина, Ирина Асанова. Преследуемый КГБ, преодолевая сети обмана и предательства, тянущиеся к самой вершине политического Олимпа, Ренко решает не останавливатьсяни перед чем и привлечь убийц к суду — даже ценой собственной судьбы и любви.



Выпущено: США
Перевод: Профессиональный (двухголосый закадровый)
Субтитры: нет
Продолжительность: 02:08:51

Файл
Качество: BDRip-AVC
Контейнер: MKV
Видео: 1024x556, MPEG-4 AVC Video, 23.976 fps, 2233 kbps
Аудио: 48 kHz, АС3, 2 ch, 192 kbps
General
Unique ID : 181639080249202962382064675648156002072 (0x88A66A144D6841D4ACB3E403D86CE718)
Complete name : D:Gorky.Park.(1983).BDRip-AVC.[-=DoMiNo=-].mkv
Format : Matroska
Format version : Version 2
File size : 2.18 GiB
Duration : 2h 8mn
Overall bit rate : 2 426 Kbps
Encoded date : UTC 2014-10-23 00:56:28
Writing application : mkvmerge v6.1.0 ('Old Devil') built on Mar 4 2013 09:10:42
Writing library : libebml v1.3.0 + libmatroska v1.4.0

Video
ID : 1
Format : AVC
Format/Info : Advanced Video Codec
Format profile : High@L4.1
Format settings, CABAC : Yes
Format settings, ReFrames : 12 frames
Codec ID : V_MPEG4/ISO/AVC
Duration : 2h 8mn
Bit rate : 2 233 Kbps
Width : 1 024 pixels
Height : 556 pixels
Display aspect ratio : 1.85:1
Frame rate mode : Constant
Frame rate : 23.976 fps
Color space : YUV
Chroma subsampling : 4:2:0
Bit depth : 8 bits
Scan type : Progressive
Bits/(Pixel*Frame) : 0.164
Stream size : 1.96 GiB (90%)
Writing library : x264 core 130 r2273 b3065e6
Encoding settings : cabac=1 / ref=12 / deblock=1:-3:-3 / analyse=0x3:0x133 / me=umh / subme=11 / psy=1 / psy_rd=1.00:0.50 / mixed_ref=1 / me_range=48 / chroma_me=1 / trellis=2 / 8x8dct=1 / cqm=0 / deadzone=21,11 / fast_pskip=0 / chroma_qp_offset=-3 / threads=12 / lookahead_threads=4 / sliced_threads=0 / slices=4 / nr=0 / decimate=1 / interlaced=0 / bluray_compat=0 / constrained_intra=0 / bframes=12 / b_pyramid=2 / b_adapt=2 / b_bias=0 / direct=3 / weightb=1 / open_gop=0 / weightp=2 / keyint=250 / keyint_min=23 / scenecut=40 / intra_refresh=0 / rc=2pass / mbtree=0 / bitrate=2233 / ratetol=1.0 / qcomp=0.70 / qpmin=0 / qpmax=69 / qpstep=4 / cplxblur=20.0 / qblur=0.5 / ip_ratio=1.40 / pb_ratio=1.30 / aq=1:1.50
Default : Yes
Forced : No

Audio
ID : 2
Format : AC-3
Format/Info : Audio Coding 3
Mode extension : CM (complete main)
Format settings, Endianness : Big
Codec ID : A_AC3
Duration : 2h 8mn
Bit rate mode : Constant
Bit rate : 192 Kbps
Channel(s) : 2 channels
Channel positions : Front: L R
Sampling rate : 48.0 KHz
Bit depth : 16 bits
Compression mode : Lossy
Stream size : 177 MiB (8%)
Language : Russian
Default : Yes
Forced : No







Скачать Парк.Горького.Gorky.Park.(Майкл.Эптид).[1983.триллер.драма.криминал.BDRip-AVC].[DVO].torrent без регистрации
Золото ЗОЛОТАЯ РАЗДАЧА! СКАЧАННОЕ НЕ ЗАСЧИТЫВАЕТСЯ! Золото
Дата: Зарегистрирован   [ Тип: внутренний ] Как тут cкачать?
MAGNET ссылка
MAGNET ссылка


Скачать .torrent

12 KB

Статус: проверено DHT
Скачан: торрент - 109 раз, раздача полностью - 1 раз
Размер: 2,18 GB
Оценка:  - (Голосов: 0)
Поблагодарили: 1
Поделиться ссылкой на эту раздачу с друзьями:
В контактеFacebookОдноклассникиTwitterLivejournalМой МирLiveinternet
 

 
Показать сообщения:    


Вы не можете начинать темы
Вы не можете отвечать на сообщения
Вы не можете редактировать свои сообщения
Вы не можете удалять свои сообщения
Вы не можете голосовать в опросах
Вы не можете прикреплять файлы к сообщениям
Вы можете скачивать файлы