Loading...
Error

Скачать Император и убийца / The Emperor and the Assassin / Jing ke ci qin wang (Чен Кайге) [1998, исторический фильм, DVDRip] [MVO] торрент без регистрации

 
Статистика раздачи
Размер:  1,37 GB   |    Скачан:  111 раз
Сидов:  1  [  0 KB/s  ]  
 
Автор Сообщение

Marsianka

[] 



Информация о фильме
Название: Император и убийца
Оригинальное название: The Emperor and the Assassin / Jing ke ci qin wang
Год выхода: 1998
Жанр: исторический фильм
Режиссер: Чен Кайге /Chen Kaige/
В ролях: Гун Ли /Gong Li/, Занг Фенги /Zhang Fengyi/, Ли Ксюджян /Li Xuejian/, Сан Зоу /Sun Zhou/, Лу Зиаоке /Lu Xiaoke/, Ванг Зуэн /Wang Zhwen/, Чен Кайге /Chen Kaige/, Гу Йонгфей /Gu Yongfei/, Зад Беншан /Zhad Benshan/, Динг Хайфенг /Ding Haifeng/

О фильме:
В 221 году до н.э. Ин Чжен, повелитель царства Цинь, пытается подчинить себе все китайские княжества. Он вошел в историю как первый император Китая. Посмотрев эту эпическую картину, Вы узнаете, сколь трагична была борьба для него самого и его близких. С детства Ин Чжен был другом принцессы Чжао (Гун Ли) из княжества Янь. Когда он стал повелителем Цинь, она поверила его словам о том, что он хочет объединить все княжества, дабы воцарился мир и прекратились войны, и предложила ему хитроумный план, чтобы получить возможность покорить Янь без войны. Поставив себе на лицо клеймо Цинь, Чжао отправилась к принцу княжества Янь и уговорила его подослать к будущему императору убийцу, о котором тот должен будет знать. Однако, время, насилие и беспрерывные войны многое изменили. Очень непростым и страшно кровавым оказался путь к миру. После того как родное княжество принцессы Чжао было уничтожено, а все дети царства Янь умерщвлены, она изменила свой план. Убийца, чья история сама по себе интересна, должен на самом деле убить императора...

В своё время самый дорогой китайский фильм, снятый самым известным китайским режиссером с участием самой красивой китайской актрисы.




Страна: Китай, Франция, Япония
Продолжительность: 02:33:42
Перевод: Многоголосый

Файл
Кодек: H264
Качество: DVDRiр
Видео: MPEG4 Video (H264) 1181 Кбит/сек 544x400 25.00fps
Звук: AAC 48000Hz stereo 87kbps

Полное имя : Jing_ke_ci_qin_wang.mp4
Формат : MPEG-4
Профиль формата : Base Media
Идентификатор кодека : isom
Размер файла : 1,37 Гбайт
Продолжительность : 2 ч. 33 м.
Общий поток : 1274 Кбит/сек
Дата кодирования : UTC 2008-05-03 08:43:06
Дата пометки : UTC 2008-05-03 08:43:06

Видео
Идентификатор : 1
Формат : AVC
Формат/Информация : Advanced Video Codec
Профиль формата : High@L4.1
Параметр CABAC формата : Да
Параметр ReFrames формата : 13 кадров
Идентификатор кодека : avc1
Идентификатор кодека/Информация : Advanced Video Coding
Продолжительность : 2 ч. 33 м.
Вид битрейта : Переменный
Битрейт : 1181 Кбит/сек
Максимальный битрейт : 4189 Кбит/сек
Ширина : 544 пикс.
Высота : 400 пикс.
Соотношение сторон : 4:3
Режим частоты кадров : Постоянный
Частота кадров : 25,000 кадр/сек
Цветовое пространство : YUV
Подвыборка цветности : 4:2:0
Битовая глубина : 8 бит
Тип развёртки : Прогрессивная
Бит/(Пиксели*Кадры) : 0.217
Размер потока : 1,27 Гбайт (93%)
Библиотека кодирования : x264 core 54 svn-598M
Настройки программы : cabac=1 / ref=10 / deblock=1:-2:-2 / analyse=0x3:0x133 / me=hex / subme=5 / brdo=0 / mixed_ref=1 / me_range=16 / chroma_me=1 / trellis=2 / 8x8dct=1 / cqm=0 / deadzone=21,11 / chroma_qp_offset=0 / slices=2 / nr=0 / decimate=1 / mbaff=0 / bframes=10 / b_pyramid=1 / b_adapt=1 / b_bias=0 / direct=2 / wpredb=1 / bime=1 / keyint=250 / keyint_min=25 / scenecut=40 / rc=2pass / bitrate=1181 / ratetol=1.0 / rceq='blurCplx^(1-qComp)' / qcomp=0.60 / qpmin=10 / qpmax=51 / qpstep=4 / cplxblur=20.0 / qblur=0.5 / ip_ratio=1.40 / pb_ratio=1.30
Дата кодирования : UTC 2008-05-03 08:43:06
Дата пометки : UTC 2008-05-03 08:45:19

Аудио
Идентификатор : 2
Формат : AAC
Формат/Информация : Advanced Audio Codec
Профиль формата : LC
Идентификатор кодека : 40
Продолжительность : 2 ч. 33 м.
Вид битрейта : Переменный
Битрейт : 87,9 Кбит/сек
Максимальный битрейт : 113 Кбит/сек
Каналы : 2 канала
Расположение каналов : Front: L R
Частота : 48,0 КГц
Метод сжатия : С потерями
Размер потока : 96,7 Мбайт (7%)
Дата кодирования : UTC 2008-05-03 08:44:30
Дата пометки : UTC 2008-05-03 08:45:19



Скачать Император.и.убийца.The.Emperor.and.the.Assassin.Jing.ke.ci.qin.wang.(Чен.Кайге).[1998.исторический.фильм.DVDRip].[MVO].torrent без регистрации
Золото ЗОЛОТАЯ РАЗДАЧА! СКАЧАННОЕ НЕ ЗАСЧИТЫВАЕТСЯ! Золото
Дата: Зарегистрирован   [ Тип: внутренний ] Как тут cкачать?
MAGNET ссылка
MAGNET ссылка


Скачать .torrent

14 KB

Статус: проверено DHT
Скачан: торрент - 111 раз, раздача полностью - 34 раз
Размер: 1,37 GB
Оценка:  - (Голосов: 0)
Поблагодарили: 0
Поделиться ссылкой на эту раздачу с друзьями:
В контактеFacebookОдноклассникиTwitterLivejournalМой МирLiveinternet
 

 
Показать сообщения:    


Вы не можете начинать темы
Вы не можете отвечать на сообщения
Вы не можете редактировать свои сообщения
Вы не можете удалять свои сообщения
Вы не можете голосовать в опросах
Вы не можете прикреплять файлы к сообщениям
Вы можете скачивать файлы