Loading...
Error

Скачать Сотня / The 100 (сезон 01) (Дин Уайт и др.) [2014, фантастика, драма, детектив, боевик, WEB-DLRip] [720p] [Dub]+3x[MVO]+[Original] торрент без регистрации

 
Статистика раздачи
Размер:  14,3 GB   |    Скачан:  179 раз
Сидов:  15  [  0 KB/s  ]   Личеров:  64  [  0 KB/s  ]  
 
Автор Сообщение

МихаНЕзатор

[] 

Информация о фильме
Название: Сотня
Оригинальное название: The 100
Год выхода: 2014
Жанр: фантастика, драма, детектив, боевик
Режиссер: Дин Уайт, Мэтт Барбер, Джон Беринг, Милан Чейлов

В ролях: Элиза Тейлор-Коттер, Мари Авгеропулос, Сачин Сахель, Линдси Морган, Женевьев Бюкнер, Ричард Хэрмон, Джарод Джозеф, Челси Рейст, Крис Браунинг, Джош Ссеттуба

О фильме: События в сериале начинают разворачиваться по прошествии девяносто семи лет после того, как всю цивилизацию уничтожила страшная атомная война.
Высоко в космосе на орбите Земли летает большой космический корабль, где находятся те, кто выжил после страшной катастрофы. Именно с этого последнего пристанища людей на Землю отправляют космический челнок, на котором находятся сто малолетних преступников…

Релиз от:

Страна: США
Студия: The CW
Продолжительность: 00:42:00
Язык: Русский, Английский
Перевод: Профессиональный (многоголосый, закадровый), Профессиональный (полное дублирование)

Файл
Формат: AVI
Кодек: XviD
Качество: BDRip
Видео: 720x400, 23.976 fps, 2000 kbps
Звук: Аудио кодек: AC3
Аудио Rus: 48 kHz, AC3, 6 ch, 384 kbps - Многоголосый закадровый, AlexFlm
Аудио Rus: 48 kHz, AC3, 6 ch, 384 kbps - Многоголосый закадровый, LostFilm
Аудио Rus: 48 kHz, AC3, 2 ch, 192 kbps - Дубляж, Kravec
Аудио Rus: 48 kHz, AC3, 6 ch, 384 kbps - Многоголосый закадровый, NewStudio
Аудио Eng: 48 kHz, AC3, 6 ch, 384 kbps - Original

АНОНСЫ ПОПУЛЯРНЫХ РАЗДАЧ


Торрент обновлён, добавлен все переводы!
• Работа со всеми озвучками k-marat-s.
• Спасибо студии AlexFilm за сотрудничество и предоставленные голоса.
• Дубляж не содержит озвучку «в предыдущих сериях». Исходные записи - Леопольд.
• Большое спасибо всем: ЛП, k-marat-s, BS666, alexmild, s_white, Nez за помощь, оказанную при работе с озвучкой.
01. Pilot / Пилот
02. Earth Skills / Земные навыки
03. Earth Kills / Земля убивает
04. Murphy's Law / Закон Мёрфи
05. Twilight's Last Gleaming / Последний отблеск заката
06. His Sister's Keeper / Защитник своей сестры
07. Contents Under Pressure / Содержимое под давлением
08. Day Trip / Прогулка
09. Unity Day / День единства
10. I Am Become Death / Я - смерть
11. The Calm / Тишина
12. We Are Grounders / Мы - земляне: часть 1
13. We Are Grounders / Мы - земляне: часть 2
General
Format : AVI
Format/Info : Audio Video Interleave
File size : 1.08 GiB
Duration : 41mn 15s
Overall bit rate : 3 756 Kbps
Writing application : VirtualDubMod 1.5.10.3 (build 2550/release)
Writing library : VirtualDubMod build 2550/release

Video
ID : 0
Format : MPEG-4 Visual
Format profile : Advanced Simple@L5
Format settings, BVOP : 1
Format settings, QPel : No
Format settings, GMC : No warppoints
Format settings, Matrix : Default (MPEG)
Codec ID : XVID
Codec ID/Hint : XviD
Duration : 41mn 15s
Bit rate : 2 000 Kbps
Width : 720 pixels
Height : 400 pixels
Display aspect ratio : 16:9
Frame rate : 23.976 fps
Color space : YUV
Chroma subsampling : 4:2:0
Bit depth : 8 bits
Scan type : Progressive
Compression mode : Lossy
Bits/(Pixel*Frame) : 0.290
Stream size : 590 MiB (53%)
Writing library : XviD 65

Audio #1
ID : 1
Format : AC-3
Format/Info : Audio Coding 3
Mode extension : CM (complete main)
Format settings, Endianness : Big
Codec ID : 2000
Duration : 41mn 15s
Bit rate mode : Constant
Bit rate : 384 Kbps
Channel(s) : 6 channels
Channel positions : Front: L C R, Side: L R, LFE
Sampling rate : 48.0 KHz
Bit depth : 16 bits
Compression mode : Lossy
Stream size : 113 MiB (10%)
Alignment : Split accross interleaves
Interleave, duration : 42 ms (1.00 video frame)
Interleave, preload duration : 500 ms

Audio #2
ID : 2
Format : AC-3
Format/Info : Audio Coding 3
Mode extension : CM (complete main)
Format settings, Endianness : Big
Codec ID : 2000
Duration : 41mn 15s
Bit rate mode : Constant
Bit rate : 384 Kbps
Channel(s) : 6 channels
Channel positions : Front: L C R, Side: L R, LFE
Sampling rate : 48.0 KHz
Bit depth : 16 bits
Compression mode : Lossy
Stream size : 113 MiB (10%)
Alignment : Split accross interleaves
Interleave, duration : 42 ms (1.00 video frame)
Interleave, preload duration : 500 ms

Audio #3
ID : 3
Format : AC-3
Format/Info : Audio Coding 3
Mode extension : CM (complete main)
Format settings, Endianness : Big
Codec ID : 2000
Duration : 41mn 15s
Bit rate mode : Constant
Bit rate : 192 Kbps
Channel(s) : 2 channels
Channel positions : Front: L R
Sampling rate : 48.0 KHz
Bit depth : 16 bits
Compression mode : Lossy
Stream size : 56.7 MiB (5%)
Alignment : Split accross interleaves
Interleave, duration : 42 ms (1.00 video frame)
Interleave, preload duration : 500 ms

Audio #4
ID : 4
Format : AC-3
Format/Info : Audio Coding 3
Mode extension : CM (complete main)
Format settings, Endianness : Big
Codec ID : 2000
Duration : 41mn 15s
Bit rate mode : Constant
Bit rate : 384 Kbps
Channel(s) : 6 channels
Channel positions : Front: L C R, Side: L R, LFE
Sampling rate : 48.0 KHz
Bit depth : 16 bits
Compression mode : Lossy
Stream size : 113 MiB (10%)
Alignment : Split accross interleaves
Interleave, duration : 42 ms (1.00 video frame)
Interleave, preload duration : 500 ms

Audio #5
ID : 5
Format : AC-3
Format/Info : Audio Coding 3
Mode extension : CM (complete main)
Format settings, Endianness : Big
Codec ID : 2000
Duration : 41mn 15s
Bit rate mode : Constant
Bit rate : 384 Kbps
Channel(s) : 6 channels
Channel positions : Front: L C R, Side: L R, LFE
Sampling rate : 48.0 KHz
Bit depth : 16 bits
Compression mode : Lossy
Stream size : 113 MiB (10%)
Alignment : Split accross interleaves
Interleave, duration : 42 ms (1.00 video frame)
Interleave, preload duration : 500 ms



Скачать Сотня.The.100.(сезон.01).(Дин.Уайт.и.др.).[2014.фантастика.драма.детектив.боевик.WEB-DLRip].[720p].[Dub]+3x[MVO]+[Original].torrent без регистрации
Золото ЗОЛОТАЯ РАЗДАЧА! СКАЧАННОЕ НЕ ЗАСЧИТЫВАЕТСЯ! Золото
Дата: Зарегистрирован   [ Тип: внешний ] Как тут cкачать?
MAGNET ссылка
MAGNET ссылка


Скачать .torrent

73 KB

Статус: проверено DHT
Скачан: торрент - 179 раз, раздача полностью - 82 раз
Размер: 14,3 GB
Оценка:  - (Голосов: 0)
Поблагодарили: 1
Поделиться ссылкой на эту раздачу с друзьями:
В контактеFacebookОдноклассникиTwitterLivejournalМой МирLiveinternet
 

 

МихаНЕзатор

[] 

Раздача обновлена
 
Показать сообщения:    


Вы не можете начинать темы
Вы не можете отвечать на сообщения
Вы не можете редактировать свои сообщения
Вы не можете удалять свои сообщения
Вы не можете голосовать в опросах
Вы не можете прикреплять файлы к сообщениям
Вы можете скачивать файлы