Loading...
Error

Скачать Рок-н-рольщик / RocknRolla (Гай Ричи) [2008, боевик, триллер, криминал, гангстерский, BDRip-AVC] [Dub]+[MVO]x3+[AVO]x2+[VO]+[Оригинал]+[Sub]x2 торрент без регистрации

 
Статистика раздачи
Размер:  4,01 GB   |    Скачан:  144 раза
Сидов:  1  [  0 KB/s  ]  
 
Автор Сообщение

Marsianka

[] 

Информация о фильме
Название: Рок-н-рольщик
Оригинальное название: RocknRolla
Год выхода: 2008
Жанр: боевик, триллер, криминал, гангстерский
Режиссер: Гай Ричи
В ролях: Джерард Батлер, Марк Стронг, Том Харди, Том Уилкинсон, Тэнди Ньютон, Идрис Эльба, Карел Роден, Тоби Кеббелл, Джереми Пивен, Лудакрис, Джими Мистри, Мэтт Кинг, Джофф Белл, Драган Мичанович, Майкл Райан, Нонсо Анози, Джемма Артертон, Дэвид Барк-Джоунс, Дэвид Леон, Бронсон Уэбб, Келли Джордж, Роланд Манукян, Джейми Кэмпбелл Бауэр, Алекс Ковас, Марио Вощицкий, Мики Де Хара, Скотт МакНесс, Тим Уоллерс, Джеймс Грин, Джаспер Джейкоб, Джоэнна Бэйкон, Джонни Харрис, Тиффани Малхерон, Бен Каплан, Бен Хоумвуд, Дэвид Стерн, Оливер Димсдейл, Блэйк Ритсон, Роберт Стоун, Энди Линден, Джейсон Коуртис, Шарлотта Армер, Рори Сэдлер

О фильме: Фильм окунет вас в опасный мир коррупции и жизни криминальных отбросов современного Лондона, где недвижимость потеснила такого внушительного лидера торгового рынка, как наркотики, а самыми активными предпринимателями стали преступные группировки. Но каждому, кто захочет проворачивать там свои дела, будь то мелкая сошка Раз-два или русский теневой миллиардер Юрий Омович, придется сначала договориться с одним и тем же человеком — Ленни Коулом.



Страна: США, Великобритания
Студия: Dark Castle Entertainment, Toff Guy Films
Продолжительность: 01:54:19
Перевод: Дублированный, профессиональный многоголосый, авторский одноголосый (Пучков (Гоблин)), (Сербин), любительский одноголосый (Sawyer888)

Файл
Кодек: MPEG-4 AVC
Качество: BDRip-AVC
Видео: 1500 Кбит/с, 1024x426, 23.976 кадр/с

Семпл
Аудио #1: Русский (AC3, 6 ch, 448 Кбит/с) / Дублированный
Аудио #2: Русский (AC3, 6 ch, 448 Кбит/с) / Профессиональный многоголосый (LostFilm)
Аудио #3: Русский (AC3, 6 ch, 448 Кбит/с) / Профессиональный многоголосый (Киномания)
Аудио #4: Русский (AC3, 6 ch, 448 Кбит/с) / Авторский одноголосый (Пучков (Гоблин))
Аудио #5: Русский (AC3, 6 ch, 448 Кбит/с) / Авторский одноголосый (Сербин)
Аудио #6: Русский (AC3, 6 ch, 448 Кбит/с) / Любительский одноголосый (Sawyer888)
Аудио #7: Украинский (AC3, 6 ch, 384 Кбит/с) / Профессиональный многоголосый (ICTV)
Аудио #8: Английский (AC3, 6 ch, 448 Кбит/с)
Субтитры: Русские, английские

Присутствует ненормативная лексика!
Общее
Уникальный идентификатор : 233233522322593287966701041865949619623 (0xAF772478C1AEF84CA54C94F95A52A5A7)
Полное имя : D:Мои РипыRocknrolshik.2008.x264.BDRip.AVC.MediaClub.mkv
Формат : Matroska
Версия формата : Version 4 / Version 2
Размер файла : 4,01 Гбайт
Продолжительность : 2 ч. 16 м.
Общий поток : 4201 Кбит/сек
Название фильма : = MediaClub = rip by krakatuq
Дата кодирования : UTC 2014-10-22 19:20:39
Программа кодирования : mkvmerge v6.6.0 ('The Edge Of The In Between') built on Dec 1 2013 17:55:00
Библиотека кодирования : libebml v1.3.0 + libmatroska v1.4.1

Видео
Идентификатор : 1
Формат : AVC
Формат/Информация : Advanced Video Codec
Профиль формата : High@L4.1
Параметр CABAC формата : Да
Параметр ReFrames формата : 9 кадров
Идентификатор кодека : V_MPEG4/ISO/AVC
Продолжительность : 2 ч. 16 м.
Битрейт : 597 Кбит/сек
Номинальный битрейт : 1500 Кбит/сек
Ширина : 1024 пикселя
Высота : 426 пикселей
Соотношение сторон : 2,40:1
Режим частоты кадров : Постоянный
Частота кадров : 23,976 кадра/сек
Цветовое пространство : YUV
Субдискретизация насыщенности : 4:2:0
Битовая глубина : 8 бит
Тип развёртки : Прогрессивная
Бит/(Пиксели*Кадры) : 0.057
Размер потока : 584 Мбайт (14%)
Заголовок : Rocknrolshik.2008.x264.BDRip.AVC.MediaClub
Библиотека кодирования : x264 core 142 r2409+42 04be48a tMod [8-bit@4:2:0 X86]
Настройки программы : cabac=1 / ref=9 / deblock=1:-3:-2 / analyse=0x3:0x133 / me=umh / subme=11 / psy=1 / fade_compensate=0.00 / psy_rd=1.00:0.15 / mixed_ref=1 / me_range=32 / chroma_me=1 / trellis=2 / 8x8dct=1 / cqm=0 / deadzone=21,11 / fast_pskip=0 / chroma_qp_offset=-3 / threads=3 / lookahead_threads=1 / sliced_threads=0 / nr=0 / decimate=0 / interlaced=0 / bluray_compat=0 / constrained_intra=0 / fgo=0 / bframes=9 / b_pyramid=2 / b_adapt=2 / b_bias=0 / direct=3 / weightb=1 / open_gop=0 / weightp=2 / keyint=240 / keyint_min=23 / scenecut=40 / intra_refresh=0 / rc=2pass / mbtree=0 / bitrate=1500 / ratetol=1.0 / qcomp=0.60 / qpmin=0:0:0 / qpmax=69:69:69 / qpstep=4 / cplxblur=20.0 / qblur=0.5 / ip_ratio=1.40 / pb_ratio=1.30 / aq=1:1.00 / aq-sensitivity=10.00 / aq-factor=1.00:1.00:1.00 / aq2=0 / aq3=0
Язык : English
Default : Да
Forced : Нет

Аудио #1
Идентификатор : 2
Формат : AC-3
Формат/Информация : Audio Coding 3
Расширение режима : CM (complete main)
Параметр Endianness формата : Big
Идентификатор кодека : A_AC3
Продолжительность : 2 ч. 16 м.
Вид битрейта : Постоянный
Битрейт : 448 Кбит/сек
Каналы : 6 каналов
Расположение каналов : Front: L C R, Side: L R, LFE
Частота : 48,0 КГц
Битовая глубина : 16 бит
Метод сжатия : С потерями
Размер потока : 438 Мбайт (11%)
Заголовок : TRACK_01_DUB_RUS
Язык : Russian
Default : Да
Forced : Да

Аудио #2
Идентификатор : 3
Формат : AC-3
Формат/Информация : Audio Coding 3
Расширение режима : CM (complete main)
Параметр Endianness формата : Big
Идентификатор кодека : A_AC3
Продолжительность : 2 ч. 16 м.
Вид битрейта : Постоянный
Битрейт : 448 Кбит/сек
Каналы : 6 каналов
Расположение каналов : Front: L C R, Side: L R, LFE
Частота : 48,0 КГц
Битовая глубина : 16 бит
Метод сжатия : С потерями
Размер потока : 438 Мбайт (11%)
Заголовок : TRACK_02_MVO_RUS_LostFilm
Язык : Russian
Default : Нет
Forced : Нет

Аудио #3
Идентификатор : 4
Формат : AC-3
Формат/Информация : Audio Coding 3
Расширение режима : CM (complete main)
Параметр Endianness формата : Big
Идентификатор кодека : A_AC3
Продолжительность : 2 ч. 16 м.
Вид битрейта : Постоянный
Битрейт : 448 Кбит/сек
Каналы : 6 каналов
Расположение каналов : Front: L C R, Side: L R, LFE
Частота : 48,0 КГц
Битовая глубина : 16 бит
Метод сжатия : С потерями
Размер потока : 438 Мбайт (11%)
Заголовок : TRACK_03_MVO_RUS_Киномания
Язык : Russian
Default : Нет
Forced : Нет

Аудио #4
Идентификатор : 5
Формат : AC-3
Формат/Информация : Audio Coding 3
Расширение режима : CM (complete main)
Параметр Endianness формата : Big
Идентификатор кодека : A_AC3
Продолжительность : 2 ч. 16 м.
Вид битрейта : Постоянный
Битрейт : 448 Кбит/сек
Каналы : 6 каналов
Расположение каналов : Front: L C R, Side: L R, LFE
Частота : 48,0 КГц
Битовая глубина : 16 бит
Метод сжатия : С потерями
Размер потока : 438 Мбайт (11%)
Заголовок : TRACK_04_AVO_RUS_PUChKOV
Язык : Russian
Default : Нет
Forced : Нет

Аудио #5
Идентификатор : 6
Формат : AC-3
Формат/Информация : Audio Coding 3
Расширение режима : CM (complete main)
Параметр Endianness формата : Big
Идентификатор кодека : A_AC3
Продолжительность : 2 ч. 16 м.
Вид битрейта : Постоянный
Битрейт : 448 Кбит/сек
Каналы : 6 каналов
Расположение каналов : Front: L C R, Side: L R, LFE
Частота : 48,0 КГц
Битовая глубина : 16 бит
Метод сжатия : С потерями
Размер потока : 438 Мбайт (11%)
Заголовок : TRACK_05_AVO_RUS_SERBIN
Язык : Russian
Default : Нет
Forced : Нет

Аудио #6
Идентификатор : 7
Формат : AC-3
Формат/Информация : Audio Coding 3
Расширение режима : CM (complete main)
Параметр Endianness формата : Big
Идентификатор кодека : A_AC3
Продолжительность : 2 ч. 16 м.
Вид битрейта : Постоянный
Битрейт : 448 Кбит/сек
Каналы : 6 каналов
Расположение каналов : Front: L C R, Side: L R, LFE
Частота : 48,0 КГц
Битовая глубина : 16 бит
Метод сжатия : С потерями
Размер потока : 438 Мбайт (11%)
Заголовок : TRACK_06_VO_RUS
Язык : Russian
Default : Нет
Forced : Нет

Аудио #7
Идентификатор : 8
Формат : AC-3
Формат/Информация : Audio Coding 3
Расширение режима : CM (complete main)
Параметр Endianness формата : Big
Идентификатор кодека : A_AC3
Продолжительность : 2 ч. 16 м.
Вид битрейта : Постоянный
Битрейт : 384 Кбит/сек
Каналы : 6 каналов
Расположение каналов : Front: L C R, Side: L R, LFE
Частота : 48,0 КГц
Битовая глубина : 16 бит
Метод сжатия : С потерями
Размер потока : 375 Мбайт (9%)
Заголовок : TRACK_07_MVO_UKR_ICTV
Язык : Ukrainian
Default : Нет
Forced : Нет

Аудио #8
Идентификатор : 9
Формат : AC-3
Формат/Информация : Audio Coding 3
Расширение режима : CM (complete main)
Параметр Endianness формата : Big
Идентификатор кодека : A_AC3
Продолжительность : 2 ч. 16 м.
Вид битрейта : Постоянный
Битрейт : 448 Кбит/сек
Каналы : 6 каналов
Расположение каналов : Front: L C R, Side: L R, LFE
Частота : 48,0 КГц
Битовая глубина : 16 бит
Метод сжатия : С потерями
Размер потока : 438 Мбайт (11%)
Заголовок : TRACK_08_ORIGINAL_ENG
Язык : English
Default : Нет
Forced : Нет

Текст #1
Идентификатор : 10
Формат : UTF-8
Идентификатор кодека : S_TEXT/UTF8
Идентификатор кодека/Информация : UTF-8 Plain Text
Заголовок : TEXT_01_SUB_RUS
Язык : Russian
Default : Нет
Forced : Нет

Текст #2
Идентификатор : 11
Формат : UTF-8
Идентификатор кодека : S_TEXT/UTF8
Идентификатор кодека/Информация : UTF-8 Plain Text
Заголовок : TEXT_02_SUB_ENG
Язык : English
Default : Нет
Forced : Нет

Меню
00:00:00.000 : en:00:00:00.000
00:05:10.101 : en:00:05:10.101
00:08:48.903 : en:00:08:48.903
00:12:34.420 : en:00:12:34.420
00:15:28.427 : en:00:15:28.427
00:18:35.864 : en:00:18:35.864
00:23:05.509 : en:00:23:05.509
00:28:17.904 : en:00:28:17.904
00:34:02.832 : en:00:34:02.832
00:38:55.750 : en:00:38:55.750
00:44:27.373 : en:00:44:27.373
00:47:09.034 : en:00:47:09.034
00:51:28.668 : en:00:51:28.668
00:57:48.548 : en:00:57:48.548
01:00:41.512 : en:01:00:41.512
01:03:11.496 : en:01:03:11.496
01:06:21.978 : en:01:06:21.978
01:11:38.293 : en:01:11:38.293
01:16:00.264 : en:01:16:00.264
01:22:12.427 : en:01:22:12.427
01:26:02.866 : en:01:26:02.866
01:29:50.301 : en:01:29:50.301
01:32:45.184 : en:01:32:45.184
01:36:05.509 : en:01:36:05.509
01:40:54.548 : en:01:40:54.548
01:43:23.030 : en:01:43:23.030
01:45:26.153 : en:01:45:26.153
01:48:22.120 : en:01:48:22.120

x264 log
x264 [info]: frame I:1368 Avg QP:14.58 size: 58475
x264 [info]: frame P:37641 Avg QP:18.06 size: 16741
x264 [info]: frame B:125443 Avg QP:20.03 size: 4582

• Любительский перевод Sawyer888 - точно по тексту Гоблина (присутствует ненормативная лексика)
• За украинскую дорогу спасибо трекеру Hurtom
Релиз от:

Автор рипа:



Скачать Рок-н-рольщик.RocknRolla.(Гай.Ричи).[2008.боевик.триллер.криминал.гангстерский.BDRip-AVC].[Dub]+[MVO]x3+[AVO]x2+[VO]+[Оригинал]+[Sub]x2.torrent без регистрации
Золото ЗОЛОТАЯ РАЗДАЧА! СКАЧАННОЕ НЕ ЗАСЧИТЫВАЕТСЯ! Золото
Дата: Зарегистрирован   [ Тип: внутренний ] Как тут cкачать?
MAGNET ссылка
MAGNET ссылка


Скачать .torrent

21 KB

Статус: проверено DHT
Скачан: торрент - 144 раз, раздача полностью - 61 раз
Размер: 4,01 GB
Оценка:  - (Голосов: 0)
Поблагодарили: 2
Поделиться ссылкой на эту раздачу с друзьями:
В контактеFacebookОдноклассникиTwitterLivejournalМой МирLiveinternet
 

 
Показать сообщения:    


Вы не можете начинать темы
Вы не можете отвечать на сообщения
Вы не можете редактировать свои сообщения
Вы не можете удалять свои сообщения
Вы не можете голосовать в опросах
Вы не можете прикреплять файлы к сообщениям
Вы можете скачивать файлы