Loading...
Error

Скачать Тотальная слежка / La Totale! (Клод Зиди) [1991, комедия, приключения, ..., BDRip-AVC] [MVO]x2 торрент без регистрации

 
Статистика раздачи
Размер:  2,11 GB   |    Скачан:  107 раз
Сидов:  1  [  0 KB/s  ]  
 
Автор Сообщение

Marsianka

[] 

Тотальная слежка
| La Totale! |


Информация о фильме
Название: Тотальная слежка
Оригинальное название: La Totale!
Год выхода: 1991
Режиссер: Клод Зиди
В ролях: Тьерри Лермитт, Миу-Миу, Эдди Митчелл, Мишель Бужена, Жан Бенгиги, Анник Алан, Клаудине Вильде, Франсуа Хаджи-Лазаро, Ян Эпстейн, Сагамор Стевенен

О фильме:
Жена главного героя уверена, что ее муж работает скромным государстенным служащим министерства связи, а он оказывается секретным агентом, выполняющим рискованнейшие задания правительства. Случайно узнав, что жена, чтобы развеять монотонность супружеской жизни, встречается с неким Симоном, выдающим себя за эдакого Джеймса Бонда. Муж использует свои служебные возможности, чтобы проучить Симона и вернуть жену. Но он никак не ожидал, что в этот момент за ними начнут охоту настоящие террористы.



Страна: Франция
Студия: Film Par Film, Films 7, M.D.G. Productions, Paravision International S.A., TF1 Films Productions
Продолжительность: 01:43:28
Перевод: Профессиональный многоголосый

Файл
Кодек: h.264
Качество: BDRip-AVC
Видео: 2153 Кбит/с, 964x576, 24.000 кадр/с
• №1: Русский (AC3, 2 ch, 192 Кбит/с) Профессиональный многоголосый [R5]
• №2: Русский (AC3, 6 ch, 384 Кбит/с) Профессиональный многоголосый [R5]
• №3: Французский (AC3, 2 ch, 192 Кбит/с)

Ввиду того, что в исходнике русская дорожка псевдодутая (оригинальная речь слышна во всех каналах), то к раздаче сделан 2-канальный звук дополнительной дорожкой

----------------------------------------------------------------------------------------
x264 [info]: frame I:1240 Avg QP:16.84 size: 85792
x264 [info]: frame P:36453 Avg QP:20.08 size: 25758
x264 [info]: frame B:111321 Avg QP:21.43 size: 5617
----------------------------------------------------------------------------------------

Полное имя : La.Totale.1991x264.BDRip-AVC.0ptimus.mkv
Формат : Matroska
Версия формата : Version 2
Размер файла : 2,11 Гбайт
Продолжительность : 1 ч. 43 м.
Общий поток : 2923 Кбит/сек
Название фильма : Тотальная слежка | The Jackpot! | La totale! [1991] -= BDRip (AVC) by 0ptimus =-
Дата кодирования : UTC 2014-05-06 12:57:11
Программа кодирования : mkvmerge v6.6.0 ('The Edge Of The In Between') built on Dec 1 2013 17:55:00
Библиотека кодирования : libebml v1.3.0 + libmatroska v1.4.1

Видео
Идентификатор : 1
Формат : AVC
Формат/Информация : Advanced Video Codec
Профиль формата : High@L4.1
Параметр CABAC формата : Да
Параметр ReFrames формата : 8 кадров
Идентификатор кодека : V_MPEG4/ISO/AVC
Продолжительность : 1 ч. 43 м.
Битрейт : 2153 Кбит/сек
Ширина : 964 пикселя
Высота : 576 пикселей
Соотношение сторон : 1,674
Режим частоты кадров : Постоянный
Частота кадров : 24,000 кадра/сек
Цветовое пространство : YUV
Субдискретизация насыщенности : 4:2:0
Битовая глубина : 8 бит
Тип развёртки : Прогрессивная
Бит/(Пиксели*Кадры) : 0.162
Размер потока : 1,52 Гбайт (72%)
Заголовок : Rip by 0ptimus
Библиотека кодирования : x264 core 133 r2334 a3ac64b
Настройки программы : cabac=1 / ref=8 / deblock=1:-3:-3 / analyse=0x3:0x113 / me=umh / subme=10 / psy=1 / psy_rd=1.00:0.20 / mixed_ref=1 / me_range=32 / chroma_me=1 / trellis=2 / 8x8dct=1 / cqm=0 / deadzone=21,11 / fast_pskip=0 / chroma_qp_offset=-3 / threads=4 / lookahead_threads=1 / sliced_threads=0 / nr=0 / decimate=0 / interlaced=0 / bluray_compat=0 / constrained_intra=0 / bframes=7 / b_pyramid=2 / b_adapt=2 / b_bias=0 / direct=3 / weightb=1 / open_gop=0 / weightp=2 / keyint=240 / keyint_min=24 / scenecut=40 / intra_refresh=0 / rc_lookahead=40 / rc=2pass / mbtree=0 / bitrate=2153 / ratetol=1.0 / qcomp=0.60 / qpmin=0 / qpmax=69 / qpstep=4 / cplxblur=20.0 / qblur=0.5 / vbv_maxrate=50000 / vbv_bufsize=50000 / nal_hrd=none / ip_ratio=1.40 / pb_ratio=1.30 / aq=1:1.00
Язык : English
Default : Да
Forced : Да

Аудио #1
Идентификатор : 2
Формат : AC-3
Формат/Информация : Audio Coding 3
Расширение режима : CM (complete main)
Параметр Endianness формата : Big
Идентификатор кодека : A_AC3
Продолжительность : 1 ч. 43 м.
Вид битрейта : Постоянный
Битрейт : 192 Кбит/сек
Каналы : 6 каналов
Расположение каналов : Front: L C R, Side: L R, LFE
Частота : 48,0 КГц
Битовая глубина : 16 бит
Метод сжатия : С потерями
Размер потока : 142 Мбайт (7%)
Заголовок : Многоголосый [R5] AC3 2.0 @ 192 kbps
Язык : Russian
Default : Да
Forced : Да

Аудио #2
Идентификатор : 3
Формат : AC-3
Формат/Информация : Audio Coding 3
Расширение режима : CM (complete main)
Параметр Endianness формата : Big
Идентификатор кодека : A_AC3
Продолжительность : 1 ч. 43 м.
Вид битрейта : Постоянный
Битрейт : 384 Кбит/сек
Каналы : 6 каналов
Расположение каналов : Front: L C R, Side: L R, LFE
Частота : 48,0 КГц
Битовая глубина : 16 бит
Метод сжатия : С потерями
Размер потока : 284 Мбайт (13%)
Заголовок : Многоголосый [R5] AC3 5.1 @ 384 kbps
Язык : Russian
Default : Нет
Forced : Нет

Аудио #3
Идентификатор : 4
Формат : AC-3
Формат/Информация : Audio Coding 3
Расширение режима : CM (complete main)
Параметр Endianness формата : Big
Идентификатор кодека : A_AC3
Продолжительность : 1 ч. 43 м.
Вид битрейта : Постоянный
Битрейт : 192 Кбит/сек
Каналы : 2 канала
Расположение каналов : Front: L R
Частота : 48,0 КГц
Битовая глубина : 16 бит
Метод сжатия : С потерями
Размер потока : 142 Мбайт (7%)
Заголовок : AC3 2.0 @ 192 kbps
Язык : French
Default : Нет
Forced : Нет

Меню
00:00:00.000 : :Chapter 01
00:07:09.000 : :Chapter 02
00:15:55.915 : :Chapter 03
00:26:13.958 : :Chapter 04
00:33:58.665 : :Chapter 05
00:41:41.750 : :Chapter 06
00:50:09.625 : :Chapter 07
00:59:10.125 : :Chapter 08
01:08:08.833 : :Chapter 09
01:16:47.207 : :Chapter 10
01:24:27.832 : :Chapter 11
01:36:14.125 : :Chapter 12
01:43:28.666 : :Chapter 13
Релиз от:



Скачать Тотальная.слежка.La.Totale!.(Клод.Зиди).[1991.комедия.приключения.BDRip-AVC].[MVO]x2.torrent без регистрации
Золото ЗОЛОТАЯ РАЗДАЧА! СКАЧАННОЕ НЕ ЗАСЧИТЫВАЕТСЯ! Золото
Дата: Зарегистрирован   [ Тип: внутренний ] Как тут cкачать?
MAGNET ссылка
MAGNET ссылка


Скачать .torrent

22 KB

Статус: проверено DHT
Скачан: торрент - 107 раз, раздача полностью - 8 раз
Размер: 2,11 GB
Оценка:  - (Голосов: 0)
Поблагодарили: 1
Поделиться ссылкой на эту раздачу с друзьями:
В контактеFacebookОдноклассникиTwitterLivejournalМой МирLiveinternet
 

 
Показать сообщения:    


Вы не можете начинать темы
Вы не можете отвечать на сообщения
Вы не можете редактировать свои сообщения
Вы не можете удалять свои сообщения
Вы не можете голосовать в опросах
Вы не можете прикреплять файлы к сообщениям
Вы можете скачивать файлы