Loading...
Error

Скачать Пьяный мастер / Drunken Master (Юйэнь Воо-пин) [1978, боевик, комедия, ..., BDRip-AVC] [MVO]+[AVO] торрент без регистрации

 
Статистика раздачи
Размер:  3,23 GB   |    Скачан:  115 раз

Полного источника не было: 23 минуты

 
Автор Сообщение

Marsianka

[] 

Пьяный мастер / Drunken Master (1978) BDRip-AVC | P, A

Год выпуска: 1978
Производство: Гонконг / Seasonal Film Corporation

Режиссер: Юйэнь Воо-пин
Продюсер: Нг Сиюэнь
Актеры: Джеки Чан, Сиу Тиен Юэнь, Янг Ли Хванг, Сиу Хунг Чэм, Чен Тиен Лунг, Чинг Чианг, Джинг Мэн Фанг, Хсю Хсиа, Йинг Ли, Чао Лин

Описание:
Молодой Вонг Фей-Хун, будущий народный герой Китая, защитник обездоленных и обиженных, в молодости был весьма строптив и дерзок. Настолько, что отец отослал неуправляемого сына к дяде, известному мастеру кунг-фу и большому эксперту в двух вещах: распитии крепких спиртных напитков и выбивании дури из самонадеянных юнцов. Неудивительно, что герой сбегает от дяди-садиста при первой же возможности. Увы, тут же побитый и униженный бандитом-профи, он возвращается назад к Пьяному Мастеру. Придется ему, скрипя зубами, терпеть иезуитские методы воспитания дяди, дабы потом, постигнув все тонкости боевых искусств, отомстить своему обидчику, который, к тому же, собирается убить его отца...




Продолжительность: 01:51:11
Перевод: Профессиональный (многоголосый закадровый) [ОРТ], Авторский (одноголосый закадровый) [Д. Пучков - Goblin]
Cубтитры: Отсутствуют


Качество: BDRip [576p]
Видео: MPEG-4 AVC/H.264, 1024x428 (2.40:1), 3 700 kbps, 23.976 fps
Аудио 1: Русский - AC3 / 2.0 / 192 Kbps / 48.0 KHz - Профессиональный (многоголосый закадровый) [ОРТ]
Аудио 2: Русский - AC3 / 2.0 / 192 Kbps / 48.0 KHz - Авторский (одноголосый закадровый) [Д. Пучков - Goblin]


General
Unique ID : 216225183286875067301772392205132003007 (0xA2AB749D1BB400068DD262A195A076BF)
Complete name : I:modoutDrunken.MasterDrunken.Master.1978.BDRip.576p.PA.mkv
Format : Matroska
Format version : Version 4 / Version 2
File size : 3.23 GiB
Duration : 1h 51mn
Overall bit rate : 4 158 Kbps
Movie name : Drunken Master (1978)
Encoded date : UTC 2014-10-24 09:10:25
Writing application : mkvmerge v7.3.0 ('Nouages') 64bit built on Oct 22 2014 18:53:34
Writing library : libebml v1.3.0 + libmatroska v1.4.1
Attachements : info.txt / cover.jpg
DURATION : 01:51:11.680000000
NUMBER_OF_FRAMES : 208490
NUMBER_OF_BYTES : 160120320
_STATISTICS_WRITING_APP : mkvmerge v7.3.0 ('Nouages') 64bit built on Oct 22 2014 18:53:34
_STATISTICS_WRITING_DATE_UTC : 2014-10-24 09:10:25
_STATISTICS_TAGS : BPS DURATION NUMBER_OF_FRAMES NUMBER_OF_BYTES

Video
ID : 1
Format : AVC
Format/Info : Advanced Video Codec
Format profile : High@L4.1
Format settings, CABAC : Yes
Format settings, ReFrames : 9 frames
Codec ID : V_MPEG4/ISO/AVC
Duration : 1h 51mn
Bit rate : 3 691 Kbps
Width : 1 024 pixels
Height : 428 pixels
Display aspect ratio : 2.40:1
Frame rate mode : Constant
Frame rate : 23.976 fps
Color space : YUV
Chroma subsampling : 4:2:0
Bit depth : 8 bits
Scan type : Progressive
Bits/(Pixel*Frame) : 0.351
Stream size : 2.87 GiB (89%)
Title : Drunken Master (1978)
Language : English
Default : Yes
Forced : No
Color primaries : BT.709
Transfer characteristics : BT.709
Matrix coefficients : BT.709
DURATION : 01:51:11.665000000
NUMBER_OF_FRAMES : 159960
NUMBER_OF_BYTES : 3145654498
_STATISTICS_WRITING_APP : mkvmerge v7.3.0 ('Nouages') 64bit built on Oct 22 2014 18:53:34
_STATISTICS_WRITING_DATE_UTC : 2014-10-24 09:10:25
_STATISTICS_TAGS : BPS DURATION NUMBER_OF_FRAMES NUMBER_OF_BYTES

Audio #1
ID : 2
Format : AC-3
Format/Info : Audio Coding 3
Mode extension : CM (complete main)
Format settings, Endianness : Big
Codec ID : A_AC3
Duration : 1h 51mn
Bit rate mode : Constant
Bit rate : 192 Kbps
Channel(s) : 2 channels
Channel positions : Front: L R
Sampling rate : 48.0 KHz
Bit depth : 16 bits
Compression mode : Lossy
Stream size : 153 MiB (5%)
Title : MVO [OPT]
Language : Russian
Default : Yes
Forced : No

Audio #2
ID : 3
Format : AC-3
Format/Info : Audio Coding 3
Mode extension : CM (complete main)
Format settings, Endianness : Big
Codec ID : A_AC3
Duration : 1h 51mn
Bit rate mode : Constant
Bit rate : 192 Kbps
Channel(s) : 2 channels
Channel positions : Front: L R
Sampling rate : 48.0 KHz
Bit depth : 16 bits
Compression mode : Lossy
Stream size : 153 MiB (5%)
Title : AVO [Goblin]
Language : Russian
Default : No
Forced : No

Menu
00:00:00.000 : en:00:00:00.000
00:07:46.048 : en:00:07:46.048
00:15:18.918 : en:00:15:18.918
00:25:17.723 : en:00:25:17.723
00:31:18.542 : en:00:31:18.542
00:41:02.543 : en:00:41:02.543
00:47:11.244 : en:00:47:11.244
00:51:10.275 : en:00:51:10.275
00:58:07.692 : en:00:58:07.692
01:05:03.940 : en:01:05:03.940
01:11:51.931 : en:01:11:51.931
01:16:48.645 : en:01:16:48.645
01:21:56.493 : en:01:21:56.493
01:26:35.355 : en:01:26:35.355
01:36:07.552 : en:01:36:07.552
01:39:30.838 : en:01:39:30.838

x264 [info]: started at Mon Oct 20 17:58:11 2014
x264 [info]: frame I:1054 Avg QP:15.81 size: 92200
x264 [info]: frame P:37728 Avg QP:18.98 size: 40756
x264 [info]: frame B:121178 Avg QP:21.78 size: 12468
x264 [info]: consecutive B-frames: 2.6% 4.1% 8.2% 26.7% 20.6% 31.4% 3.7% 1.9% 0.3% 0.3% 0.1% 0.1% 0.0% 0.1% 0.1%
x264 [info]: mb I I16..4: 5.8% 71.1% 23.1%
x264 [info]: mb P I16..4: 0.4% 18.6% 2.8% P16..4: 22.7% 30.3% 17.6% 5.5% 1.0% skip: 1.1%
x264 [info]: mb B I16..4: 0.0% 3.3% 0.3% B16..8: 32.8% 21.8% 4.3% direct: 9.2% skip:28.2% L0:36.1% L1:39.6% BI:24.3%
x264 [info]: 8x8 transform intra:85.9% inter:52.9%
x264 [info]: coded y,uvDC,uvAC intra: 97.5% 87.7% 70.7% inter: 41.7% 35.2% 18.1%
x264 [info]: i16 v,h,dc,p: 11% 14% 9% 65%
x264 [info]: i8 v,h,dc,ddl,ddr,vr,hd,vl,hu: 9% 8% 7% 10% 14% 13% 13% 12% 14%
x264 [info]: i4 v,h,dc,ddl,ddr,vr,hd,vl,hu: 10% 8% 3% 9% 16% 15% 15% 12% 13%
x264 [info]: i8c dc,h,v,p: 45% 18% 17% 20%
x264 [info]: Weighted P-Frames: Y:13.0% UV:8.9%
x264 [info]: ref P L0: 51.5% 16.2% 13.2% 6.1% 4.3% 3.1% 2.5% 1.6% 1.4% 0.2% 0.0%
x264 [info]: ref B L0: 86.5% 6.3% 3.0% 1.5% 1.0% 0.8% 0.6% 0.3%
x264 [info]: ref B L1: 95.6% 4.4%
x264 [info]: kb/s:3701.96



Скачать Пьяный.мастер.Drunken.Master.(Юйэнь.Воо-пин).[1978.боевик.комедия.BDRip-AVC].[MVO]+[AVO].torrent без регистрации
Золото ЗОЛОТАЯ РАЗДАЧА! СКАЧАННОЕ НЕ ЗАСЧИТЫВАЕТСЯ! Золото
Дата: Зарегистрирован   [ Тип: внутренний ] Как тут cкачать?
MAGNET ссылка
MAGNET ссылка


Скачать .torrent

17 KB

Статус: проверено DHT
Скачан: торрент - 115 раз, раздача полностью - 35 раз
Размер: 3,23 GB
Оценка:  - (Голосов: 0)
Поблагодарили: 0
Поделиться ссылкой на эту раздачу с друзьями:
В контактеFacebookОдноклассникиTwitterLivejournalМой МирLiveinternet
 

 
Показать сообщения:    


Вы не можете начинать темы
Вы не можете отвечать на сообщения
Вы не можете редактировать свои сообщения
Вы не можете удалять свои сообщения
Вы не можете голосовать в опросах
Вы не можете прикреплять файлы к сообщениям
Вы можете скачивать файлы