Loading...
Error

Скачать Пьяный мастер 2 / The Legend of Drunken Master (Лю Чя-Лян, Джеки Чан) [1994, боевик, комедия, ..., BDRip-AVC] [MVO]+[AVO]x2+[VO]+[Оригинал]+[Sub]x2 торрент без регистрации

 
Статистика раздачи
Размер:  3,9 GB   |    Скачан:  120 раз
Сидов:  1  [  0 KB/s  ]  
 
Автор Сообщение

Marsianka

[] 

Пьяный мастер 2 / The Legend of Drunken Master (1994) BDRip-AVC | P, A, L1
«Don't Cross His Path When He's Drunk!»

Год выпуска: 1994
Производство: Гонконг / Golden Harvest

Режиссер: Лю Чя-Лян, Джеки Чан
Продюсер: Эдвард Танг, Ман-Мин Тон, Гай Чи Юйэнь
Актеры: Джеки Чан, Ти Лунг, Анита Муи, Ло Ка-Льюнг, Феликс Вонг, Чин Ка-Лок

Описание:
Вонг Фей-Хунг неожиданно узнаёт о делах британского консула, который пытается тайно вывезти из страны древние китайские артефакты. Перед этим ему было поручено охранять корень женьшеня в поезде, но спасти этот корень не удалось - корень погиб. Корень был нужен его отцу - доктору Вонгу (Ти Лунг). Отец запрещает Фей-Хунгу заниматься искусством "пьяного кунг-фу", но разрешает его мачеха (Анита Муи), поскольку на неё напали агенты британского консула. После того, что увидел отец, разразился семейный скандал, в результате чего Фей-Хунг был лишён наследства. Поняв свою ошибку, Фей-Хунг возвращается в семью и просит у отца прощения. Тем временем ситуация с китайскими артефактами ухудшается, поскольку рабочие одного из заводов узнали о махинациях британского консула и его агентах, которые сами были китайцами по происхождению. Фей-Хунг и один из его друзей решают разобраться с этим, но попали в ловушку и едва избежали казни благодаря выкупу,который выплатил отец Фей-Хунга. Но после того, как отец уехал по делам, отряд рабочих и Фей-Хунга решают расправиться с бесчестным консулом и его агентами, что Фей-Хунгу и удаётся. Фей-Хунг сражается с помощниками консула, используя боевой стиль «пьяной борьбы».





Дата мировой премьеры: 3 февраля 1994

Рейтинг MPAA: R
Возраст: 16+

Продолжительность: 01:42:30
Качество: BDRip-AVC [576p]

Видео: MPEG-4 AVC/H.264, 1024x438 (2.35:1), 3 800 kbps, 23.976 fps
Профессиональный (многоголосый закадровый) [СТС], Авторский (одноголосый закадровый) [А. Гаврилов], Авторский (одноголосый закадровый) [М. Иванов], Любительский (одноголосый закадровый) [Tai Seng]
Вид субтитров: Вшитые отключаемые
Язык субтитров: Русский, Английский
Аудио 1: Русский - AC3 / 2.0 / 192 Kbps / 48.0 KHz - Профессиональный (многоголосый закадровый) [СТС]
Аудио 2: Русский - AC3 / 5.1 / 448 Kbps / 48.0 KHz - Авторский (одноголосый закадровый) [А. Гаврилов]
Аудио 3: Русский - AC3 / 2.0 / 192 Kbps / 48.0 KHz - Авторский (одноголосый закадровый) [М. Иванов]
Аудио 4: Русский - AC3 / 2.0 / 192 Kbps / 48.0 KHz - Любительский (одноголосый закадровый) [Tai Seng]
Аудио 5: Китайский - AC3 / 5.1 / 448 Kbps / 48.0 KHz - Оригинальный


General
Unique ID : 218095283595636685121123604864474820213 (0xA4139FAD778D0A93A65BE18CEBEC2E75)
Complete name : I:modoutDrunken.Master.IIDrunken.Master.II.1994.BDRip.576p.PAL1.mkv
Format : Matroska
Format version : Version 4 / Version 2
File size : 3.90 GiB
Duration : 1h 42mn
Overall bit rate : 5 445 Kbps
Movie name : Drunken Master II (1994)
Encoded date : UTC 2014-10-24 18:40:51
Writing application : mkvmerge v7.3.0 ('Nouages') 64bit built on Oct 22 2014 18:53:34
Writing library : libebml v1.3.0 + libmatroska v1.4.1
Attachements : cover_drunken_master_legend_us.jpg
_STATISTICS_WRITING_APP : mkvmerge v7.3.0 ('Nouages') 64bit built on Oct 22 2014 18:53:34
_STATISTICS_WRITING_DATE_UTC : 2014-10-24 18:40:51
_STATISTICS_TAGS : BPS DURATION NUMBER_OF_FRAMES NUMBER_OF_BYTES
DURATION : 01:38:51.231000000
NUMBER_OF_FRAMES : 1980
NUMBER_OF_BYTES : 47389

Video
ID : 1
Format : AVC
Format/Info : Advanced Video Codec
Format profile : High@L4.1
Format settings, CABAC : Yes
Format settings, ReFrames : 9 frames
Codec ID : V_MPEG4/ISO/AVC
Duration : 1h 42mn
Bit rate : 3 865 Kbps
Width : 1 024 pixels
Height : 438 pixels
Display aspect ratio : 2.35:1
Frame rate mode : Constant
Frame rate : 23.976 fps
Color space : YUV
Chroma subsampling : 4:2:0
Bit depth : 8 bits
Scan type : Progressive
Bits/(Pixel*Frame) : 0.359
Stream size : 2.77 GiB (71%)
Title : Drunken Master II (1994)
Language : English
Default : Yes
Forced : No
Color primaries : BT.709
Transfer characteristics : BT.709
Matrix coefficients : BT.709
DURATION : 01:42:30.103000000
NUMBER_OF_FRAMES : 147455
NUMBER_OF_BYTES : 3053180895
_STATISTICS_WRITING_APP : mkvmerge v7.3.0 ('Nouages') 64bit built on Oct 22 2014 18:53:34
_STATISTICS_WRITING_DATE_UTC : 2014-10-24 18:40:51
_STATISTICS_TAGS : BPS DURATION NUMBER_OF_FRAMES NUMBER_OF_BYTES

Audio #1
ID : 2
Format : AC-3
Format/Info : Audio Coding 3
Mode extension : CM (complete main)
Format settings, Endianness : Big
Codec ID : A_AC3
Duration : 1h 42mn
Bit rate mode : Constant
Bit rate : 192 Kbps
Channel(s) : 2 channels
Channel positions : Front: L R
Sampling rate : 48.0 KHz
Bit depth : 16 bits
Compression mode : Lossy
Stream size : 141 MiB (4%)
Title : MVO [CTC]
Language : Russian
Default : Yes
Forced : No

Audio #2
ID : 3
Format : AC-3
Format/Info : Audio Coding 3
Mode extension : CM (complete main)
Format settings, Endianness : Big
Codec ID : A_AC3
Duration : 1h 42mn
Bit rate mode : Constant
Bit rate : 448 Kbps
Channel(s) : 6 channels
Channel positions : Front: L C R, Side: L R, LFE
Sampling rate : 48.0 KHz
Bit depth : 16 bits
Compression mode : Lossy
Stream size : 328 MiB (8%)
Title : AVO [A. Gavrilov]
Language : Russian
Default : No
Forced : No

Audio #3
ID : 4
Format : AC-3
Format/Info : Audio Coding 3
Mode extension : CM (complete main)
Format settings, Endianness : Big
Codec ID : A_AC3
Duration : 1h 42mn
Bit rate mode : Constant
Bit rate : 192 Kbps
Channel(s) : 2 channels
Channel positions : Front: L R
Sampling rate : 48.0 KHz
Bit depth : 16 bits
Compression mode : Lossy
Stream size : 141 MiB (4%)
Title : AVO [M.Ivanov]
Language : Russian
Default : No
Forced : No

Audio #4
ID : 5
Format : AC-3
Format/Info : Audio Coding 3
Mode extension : CM (complete main)
Format settings, Endianness : Big
Codec ID : A_AC3
Duration : 1h 42mn
Bit rate mode : Constant
Bit rate : 192 Kbps
Channel(s) : 2 channels
Channel positions : Front: L R
Sampling rate : 48.0 KHz
Bit depth : 16 bits
Compression mode : Lossy
Stream size : 141 MiB (4%)
Title : VO [Tai Seng]
Language : Russian
Default : No
Forced : No

Audio #5
ID : 6
Format : AC-3
Format/Info : Audio Coding 3
Mode extension : CM (complete main)
Format settings, Endianness : Big
Codec ID : A_AC3
Duration : 1h 42mn
Bit rate mode : Constant
Bit rate : 448 Kbps
Channel(s) : 6 channels
Channel positions : Front: L C R, Side: L R, LFE
Sampling rate : 48.0 KHz
Bit depth : 16 bits
Compression mode : Lossy
Stream size : 328 MiB (8%)
Title : original
Language : Chinese
Default : No
Forced : No

Text #1
ID : 7
Format : UTF-8
Codec ID : S_TEXT/UTF8
Codec ID/Info : UTF-8 Plain Text
Language : Russian
Default : No
Forced : No

Text #2
ID : 8
Format : UTF-8
Codec ID : S_TEXT/UTF8
Codec ID/Info : UTF-8 Plain Text
Language : English
Default : No
Forced : No

Menu
00:00:00.000 : en:Opening Credits / Paying Dues
00:05:54.271 : en:Gone Wild!
00:14:38.795 : en:Man of Intelligence
00:17:31.300 : en:Dirty Ginseng
00:25:21.228 : en:Overtime Hours, Overtime Pay!
00:28:59.279 : en:Drunken Boxing
00:33:53.865 : en:Chinese Mafia in Bad English Suits
00:46:09.892 : en:"You're Not My Son"
00:54:18.839 : en:Drunk and Alone, with No Home
00:58:44.563 : en:Father Forgive Me
01:01:06.913 : en:Eureka!
01:11:13.144 : en:"Seal of Approval"
01:17:15.673 : en:Shady Antiques
01:20:10.848 : en:Man in Battle
01:38:52.718 : en:Proud Family
01:39:40.391 : en:End Credits

x264 [info]: started at Fri Oct 24 17:10:05 2014
x264 [info]: frame I:1214 Avg QP:14.94 size: 85454
x264 [info]: frame P:35428 Avg QP:18.08 size: 35374
x264 [info]: frame B:110813 Avg QP:20.03 size: 15307
x264 [info]: consecutive B-frames: 2.2% 3.6% 9.9% 34.8% 21.2% 25.2% 1.9% 0.6% 0.1% 0.1% 0.1% 0.0% 0.0% 0.1% 0.1%
x264 [info]: mb I I16..4: 6.9% 64.2% 29.0%
x264 [info]: mb P I16..4: 1.1% 21.3% 3.6% P16..4: 24.5% 30.3% 13.3% 3.9% 0.6% skip: 1.5%
x264 [info]: mb B I16..4: 0.2% 5.0% 0.7% B16..8: 33.7% 24.2% 4.4% direct: 7.9% skip:24.0% L0:36.1% L1:40.2% BI:23.7%
x264 [info]: 8x8 transform intra:82.0% inter:49.8%
x264 [info]: coded y,uvDC,uvAC intra: 96.4% 79.7% 54.4% inter: 39.2% 24.6% 8.4%
x264 [info]: i16 v,h,dc,p: 5% 15% 24% 56%
x264 [info]: i8 v,h,dc,ddl,ddr,vr,hd,vl,hu: 11% 8% 6% 9% 13% 13% 13% 13% 14%
x264 [info]: i4 v,h,dc,ddl,ddr,vr,hd,vl,hu: 12% 11% 4% 8% 14% 13% 13% 11% 13%
x264 [info]: i8c dc,h,v,p: 36% 26% 20% 18%
x264 [info]: Weighted P-Frames: Y:5.8% UV:2.8%
x264 [info]: ref P L0: 53.7% 12.4% 13.7% 6.4% 4.4% 3.3% 2.6% 1.7% 1.5% 0.2% 0.0%
x264 [info]: ref B L0: 88.8% 5.3% 2.5% 1.2% 0.9% 0.6% 0.5% 0.3%
x264 [info]: ref B L1: 96.1% 3.9%
x264 [info]: kb/s:3971.55



Скачать Пьяный.мастер.2.The.Legend.of.Drunken.Master.(Лю.Чя-Лян.Джеки.Чан).[1994.боевик.комедия.BDRip-AVC].[MVO]+[AVO]x2+[VO]+[Оригинал]+[Sub]x2.torrent без регистрации
Золото ЗОЛОТАЯ РАЗДАЧА! СКАЧАННОЕ НЕ ЗАСЧИТЫВАЕТСЯ! Золото
Дата: Зарегистрирован   [ Тип: внутренний ] Как тут cкачать?
MAGNET ссылка
MAGNET ссылка


Скачать .torrent

20 KB

Статус: проверено DHT
Скачан: торрент - 120 раз, раздача полностью - 124 раз
Размер: 3,9 GB
Оценка:  - (Голосов: 0)
Поблагодарили: 1
Поделиться ссылкой на эту раздачу с друзьями:
В контактеFacebookОдноклассникиTwitterLivejournalМой МирLiveinternet
 

 
Показать сообщения:    


Вы не можете начинать темы
Вы не можете отвечать на сообщения
Вы не можете редактировать свои сообщения
Вы не можете удалять свои сообщения
Вы не можете голосовать в опросах
Вы не можете прикреплять файлы к сообщениям
Вы можете скачивать файлы