Loading...
Error

Скачать Царство / Reign (сезон 02) (Джеримайя С. Чечик, Холли Дэйл, Фред Гербер) [2014, драма, фэнтези, WEB-DL] [720p] [MVO (Amedia)]+[Eng]+[Sub (Rus, Eng)] торрент без регистрации

 
Статистика раздачи
Размер:  30,49 GB   |    Скачан:  6567 раз
Сидов:  1  [  0 KB/s  ]  
 
Автор Сообщение

МихаНЕзатор

[] 

Информация о фильме
Название: Царство
Оригинальное название: Reign
Год выхода: 2014
Жанр: драма, фэнтези
Режиссер: Джеримайя С. Чечик, Холли Дэйл, Фред Гербер


В ролях: Аделаида Кейн, Меган Фоллоуз, Торранс Кумбс, Тоби Регбо, Дженесса Грант, Селина Синден, Кейтлин Стэйси, Анна Попплуэлл, Алан Ван Спрэнг и др.



О фильме: Сериал, повествующий о событиях 1557 года. Королеву Шотландии, Марию, с детства прячут в монастыре. Обходить стороной соперников, злодеев, желающих ее смерти, ей помогают монахини. Но приходит время возвращаться в замок и становиться не только титулованной королевой, но и женой принца Франциска, с которым девушка была обручена ещё несколько лет назад. Основу всей царской жизни составляют хитроумные планы и интриги. Король смотрит на замужество только как на способ сблизиться с другой страной и сделать свою власть ещё масштабнее и крепче. О светлых чувствах и влечениях речь идет только в сердце самой Марии, которая сразу же прибыв в замок, оказывается в центре сплетен и слухов. «Царство» рассказывает о приходе к власти Марии, о ее любви, о ее стремлениях и характере. Мария становится светлым лучиком в царстве тьмы, где правят темные силы и сексуальные интриги.







Страна: США
Продолжительность: ~ 00:43:00
Перевод: Профессиональный (многоголосый закадровый) SDI Media по заказу Amedia

Файл
Кодек: h.264
Качество: WEB-DL 720p
Видео: ~ 4000 Кбит/с, 1280x720, 25 кадр/с
Звук: Русский, английский (AC3, 6 ch, 384 Кбит/с)
Субтитры: Русские (Amedia), английские


АНОНСЫ ПОПУЛЯРНЫХ РАЗДАЧ


Торрент обновлён, добавлена 22-я серия!
Общее
Уникальный идентификатор : 251774514686278503032455005665746902503 (0xBD6A01F9126D1D55BF79D9FE64825DE7)
Полное имя : Reign.S02.720p.WEB-DL.Rus.Eng.CasStudio.TVReign.S02E02.720p.WEB-DL.Rus.Eng.CasStudio.TV.mkv
Формат : Matroska
Версия формата : Version 2
Размер файла : 1,43 Гбайт
Продолжительность : 40 м.
Общий поток : 5081 Кбит/сек
Название фильма : Reign S02E02 by KURT
Дата кодирования : UTC 2014-10-10 20:10:51
Программа кодирования : mkvmerge v5.8.0 ('No Sleep / Pillow') built on Sep 2 2012 15:37:04
Библиотека кодирования : libebml v1.2.3 + libmatroska v1.3.0

Видео
Идентификатор : 1
Формат : AVC
Формат/Информация : Advanced Video Codec
Профиль формата : High@L3.1
Параметр CABAC формата : Нет
Параметр ReFrames формата : 2 кадра
Идентификатор кодека : V_MPEG4/ISO/AVC
Продолжительность : 40 м.
Битрейт : 4212 Кбит/сек
Ширина : 1280 пикселей
Высота : 720 пикселей
Соотношение сторон : 16:9
Режим частоты кадров : Постоянный
Частота кадров : 25,000 кадров/сек
Цветовое пространство : YUV
Субдискретизация насыщенности : 4:2:0
Битовая глубина : 8 бит
Тип развёртки : Прогрессивная
Бит/(Пиксели*Кадры) : 0.183
Размер потока : 1,19 Гбайт (83%)
Язык : English
Default : Нет
Forced : Нет
Основные цвета : BT.709
Характеристики трансфера : BT.709
Коэффициенты матрицы : BT.709

Аудио #1
Идентификатор : 2
Формат : AC-3
Формат/Информация : Audio Coding 3
Расширение режима : CM (complete main)
Параметр Endianness формата : Big
Идентификатор кодека : A_AC3
Продолжительность : 40 м.
Вид битрейта : Постоянный
Битрейт : 384 Кбит/сек
Каналы : 6 каналов
Расположение каналов : Front: L C R, Side: L R, LFE
Частота : 48,0 КГц
Битовая глубина : 16 бит
Метод сжатия : С потерями
Размер потока : 111 Мбайт (8%)
Заголовок : Amedia
Язык : Russian
Default : Да
Forced : Нет

Аудио #2
Идентификатор : 3
Формат : AC-3
Формат/Информация : Audio Coding 3
Расширение режима : CM (complete main)
Параметр Endianness формата : Big
Идентификатор кодека : A_AC3
Продолжительность : 40 м.
Вид битрейта : Постоянный
Битрейт : 384 Кбит/сек
Каналы : 6 каналов
Расположение каналов : Front: L C R, Side: L R, LFE
Частота : 48,0 КГц
Битовая глубина : 16 бит
Метод сжатия : С потерями
Размер потока : 111 Мбайт (8%)
Заголовок : English
Язык : English
Default : Нет
Forced : Нет

Текст #1
Идентификатор : 4
Формат : UTF-8
Идентификатор кодека : S_TEXT/UTF8
Идентификатор кодека/Информация : UTF-8 Plain Text
Заголовок : Amedia
Язык : Russian
Default : Нет
Forced : Нет

Текст #2
Идентификатор : 5
Формат : UTF-8
Идентификатор кодека : S_TEXT/UTF8
Идентификатор кодека/Информация : UTF-8 Plain Text
Заголовок : English
Язык : English
Default : Нет
Forced : Нет



Скачать Царство.Reign.(сезон.02).(Джеримайя.С.Чечик.Холли.Дэйл.Фред.Гербер).[2014.драма.фэнтези.WEB-DL].[720p].[MVO.(Amedia)]+[Eng]+[Sub.(Rus.Eng)].torrent без регистрации
Золото ЗОЛОТАЯ РАЗДАЧА! СКАЧАННОЕ НЕ ЗАСЧИТЫВАЕТСЯ! Золото
Дата: Зарегистрирован   [ Тип: внутренний ] Как тут cкачать?
MAGNET ссылка
MAGNET ссылка


Скачать .torrent

79 KB

Статус: проверено DHT
Скачан: торрент - 6567 раз, раздача полностью - 11 раз
Размер: 30,49 GB
Оценка:  - (Голосов: 0)
Поблагодарили: 0
Поделиться ссылкой на эту раздачу с друзьями:
В контактеFacebookОдноклассникиTwitterLivejournalМой МирLiveinternet
 

 
Показать сообщения:    


Вы не можете начинать темы
Вы не можете отвечать на сообщения
Вы не можете редактировать свои сообщения
Вы не можете удалять свои сообщения
Вы не можете голосовать в опросах
Вы не можете прикреплять файлы к сообщениям
Вы можете скачивать файлы