Loading...
Error

Скачать Забрасывая камнями / Побивание камнями Сорайи М. / The Stoning of Soraya M. (Сайрус Наурастех) [2008, драма, BDRip-AVC] [AVO]+[Sub]x2 торрент без регистрации

 
Статистика раздачи
Размер:  1,46 GB   |    Скачан:  100 раз
Сидов:  4  [  0 KB/s  ]   Личеров:  2  [  0 KB/s  ]  
 
Автор Сообщение

Marsianka

[] 

Забрасывая камнями / Побивание камнями Сорайи М.
The Stoning of Soraya M.

«When a deadly conspiracy became a shameful cover-up One witness refused to be silent»



Страна: США
Студия: Fallen Films, Mpower Distribution, Mpower Pictures, Prime Meridian Pctures, Roadside Attractions
Жанр: драма
Год выпуска: 2008
Продолжительность: 01:54:20

Перевод: Авторский (одноголосый закадровый) [А. Дасевич]
Cубтитры: Русские, Английские
Оригинальная аудиодорожка: Нет

Режиссер:
Сайрус Наурастех / Cyrus Nowrasteh

В ролях:
Шоре Агдашлу, Можан Марно, Джеймс Кэвизел, Навид Негабан, Али Порташ, Дэвид Диаан, Парвиз Сайяд, Вида Гахремани, Вачик Мангассариан, Бита Шейбани

Описание:
У журналиста, работающего в Иране, ломается машина, он просит помощи в местной деревне. Но помощь нужна не ему одному. Здесь он встречает женщину по имени Захра, которая хочет рассказать о своей племяннице Сорайе и о кровавых обстоятельствах ее вчерашней смерти в надежде обличить жестокие законы шариата. Ее последняя и единственная надежда на справедливость — этот журналист, который должен уйти с историей, чтобы рассказать о насилии всему миру.




Релиз:

Автор рипа: Stalker oK

Сэмпл: multi-up

Качество видео: BDRip-AVC [Blu-ray Remux 1080p HDCLUB]
Формат видео: MKV
Видео кодек: AVC
Аудио кодек: AC3
Видео: 1382 Кбит/сек, 958*408 (2,35:1), в 23,976 кадр/сек, AVC
Аудио: Russian, 448 Кбит/сек, 48,0 КГц, 16 бит, 6 канала(ов), AC-3

Общее
Уникальный идентификатор : 201748959834518680004182253406622863726 (0x97C76FB151BD56AF8ED18375456C516E)
Полное имя : K:TEMPПобивание камнями Сорайи МPobivanie.kamnjami.Soraji.M.BDRip-AVC.AVO.1.45Gb...stalkerok.new-team.mkv
Формат : Matroska
Размер файла : 1,46 Гбайт
Продолжительность : 1 ч. 54 м.
Общий поток : 1832 Кбит/сек
Название фильма : The Stoning of Soraya M. (2008) (New-Team) (Rip by Stalker oK)
Дата кодирования : UTC 2014-10-24 16:14:37
Программа кодирования : mkvmerge v6.1.0 ('Old Devil') built on Mar 4 2013 09:10:42
Библиотека кодирования : libebml v1.3.0 + libmatroska v1.4.0

Видео
Идентификатор : 1
Формат : AVC
Формат/Информация : Advanced Video Codec
Профиль формата : High@L4.1
Параметр CABAC формата : Да
Параметр ReFrames формата : 12 кадры
Идентификатор кодека : V_MPEG4/ISO/AVC
Продолжительность : 1 ч. 54 м.
Битрейт : 1382 Кбит/сек
Ширина : 958 пикс.
Высота : 408 пикс.
Соотношение сторон : 2,35:1
Частота кадров : 23,976 кадр/сек
Цветовое пространство : YUV
Подвыборка цветности : 4:2:0
Битовая глубина : 8 бит
Тип развёртки : Прогрессивная
Бит/(Пиксели*Кадры) : 0.147
Размер потока : 1,08 Гбайт (74%)
Библиотека кодирования : x264 core 142 r2431 ac76440
Настройки программы : cabac=1 / ref=12 / deblock=1:-3:-2 / analyse=0x3:0x133 / me=umh / subme=11 / psy=1 / psy_rd=1.00:0.11 / mixed_ref=1 / me_range=48 / chroma_me=1 / trellis=2 / 8x8dct=1 / cqm=0 / deadzone=21,11 / fast_pskip=0 / chroma_qp_offset=-3 / threads=12 / lookahead_threads=3 / sliced_threads=0 / nr=0 / decimate=0 / interlaced=0 / bluray_compat=0 / constrained_intra=0 / bframes=14 / b_pyramid=2 / b_adapt=2 / b_bias=0 / direct=3 / weightb=1 / open_gop=0 / weightp=2 / keyint=240 / keyint_min=23 / scenecut=40 / intra_refresh=0 / rc_lookahead=80 / rc=2pass / mbtree=0 / bitrate=1382 / ratetol=1.0 / qcomp=0.70 / qpmin=0 / qpmax=69 / qpstep=4 / cplxblur=20.0 / qblur=0.5 / vbv_maxrate=20000 / vbv_bufsize=25000 / nal_hrd=none / filler=0 / ip_ratio=1.20 / pb_ratio=1.10 / aq=2:0.90

Аудио
Идентификатор : 2
Формат : AC-3
Формат/Информация : Audio Coding 3
Расширение режима : CM (complete main)
Идентификатор кодека : A_AC3
Продолжительность : 1 ч. 54 м.
Вид битрейта : Постоянный
Битрейт : 448 Кбит/сек
Канал(ы) : 6 канала(ов)
Расположение каналов : Front: L C R, Side: L R, LFE
Частота : 48,0 КГц
Битовая глубина : 16 бит
Метод сжатия : С потерями
Размер потока : 366 Мбайт (24%)
Заголовок : А.Дасевич
Язык : Russian

Текст #1
Идентификатор : 3
Формат : UTF-8
Идентификатор кодека : S_TEXT/UTF8
Идентификатор кодека/Информация : UTF-8 Plain Text
Язык : Russian

Текст #2
Идентификатор : 4
Формат : UTF-8
Идентификатор кодека : S_TEXT/UTF8
Идентификатор кодека/Информация : UTF-8 Plain Text
Язык : English

Меню
00:00:00.000 : en:Chapter 1
00:09:53.092 : en:Chapter 2
00:15:21.921 : en:Chapter 3
00:23:10.388 : en:Chapter 4
00:31:49.407 : en:Chapter 5
00:41:35.492 : en:Chapter 6
00:49:13.449 : en:Chapter 7
00:56:04.861 : en:Chapter 8
01:04:36.372 : en:Chapter 9
01:10:32.228 : en:Chapter 10
01:18:07.682 : en:Chapter 11
01:22:26.942 : en:Chapter 12
01:30:07.902 : en:Chapter 13
01:39:50.984 : en:Chapter 14
01:43:58.732 : en:Chapter 15
01:51:11.164 : en:Chapter 16
01:54:20.436 : en:Chapter 17



Скачать Забрасывая.камнями.Побивание.камнями.Сорайи.М.The.Stoning.of.Soraya.M.(Сайрус.Наурастех).[2008.драма.BDRip-AVC].[AVO]+[Sub]x2.torrent без регистрации
Золото ЗОЛОТАЯ РАЗДАЧА! СКАЧАННОЕ НЕ ЗАСЧИТЫВАЕТСЯ! Золото
Дата: Зарегистрирован   [ Тип: внешний ] Как тут cкачать?
MAGNET ссылка
MAGNET ссылка


Скачать .torrent

15 KB

Статус: проверено DHT
Скачан: торрент - 100 раз, раздача полностью - 0 раз
Размер: 1,46 GB
Оценка:  - (Голосов: 0)
Поблагодарили: 2
Поделиться ссылкой на эту раздачу с друзьями:
В контактеFacebookОдноклассникиTwitterLivejournalМой МирLiveinternet
 

 
Показать сообщения:    


Вы не можете начинать темы
Вы не можете отвечать на сообщения
Вы не можете редактировать свои сообщения
Вы не можете удалять свои сообщения
Вы не можете голосовать в опросах
Вы не можете прикреплять файлы к сообщениям
Вы можете скачивать файлы